<?xml version="1.0" standalone="no"?>
<!DOCTYPE svg PUBLIC "-//W3C//DTD SVG 1.1//EN" "http://www.w3.org/Graphics/SVG/1.1/DTD/svg11.dtd">
<svg xmlns="http://www.w3.org/2000/svg">
<metadata>Generated by Fontastic.me</metadata>
<defs>
<font id="material-icons-2-ff" horiz-adv-x="512">
<font-face font-family="material-icons-2-ff" units-per-em="512" ascent="480" descent="-32"/>
<missing-glyph horiz-adv-x="512" />

<glyph glyph-name="arrow-back-ios-fill0-wght400-grad0-opsz24" unicode="&#97;" d="M213 43l-213 213 213 213 38-38-175-175 175-175z"/>
<glyph glyph-name="arrow-drop-down-fill0-wght400-grad0-opsz24" unicode="&#98;" d="M256 192l-107 107 214 0z"/>
<glyph glyph-name="arrow-forward-ios-fill0-wght400-grad0-opsz24" unicode="&#99;" d="M171 43l-38 38 176 175-176 175 38 38 214-213z"/>
<glyph glyph-name="close-fill0-wght400-grad0-opsz24" unicode="&#100;" d="M137 107l-30 30 119 119-119 119 30 30 119-119 119 119 30-30-119-119 119-119-30-30-119 119z"/>
<glyph glyph-name="delete-fill0-wght400-grad0-opsz24" unicode="&#101;" d="M149 64c-11 0-21 4-30 13-8 8-12 18-12 30l0 277-22 0 0 43 107 0 0 21 128 0 0-21 107 0 0-43-22 0 0-277c0-12-4-22-12-30-9-9-19-13-30-13z m214 320l-214 0 0-277 214 0z m-171-235l43 0 0 192-43 0z m85 0l43 0 0 192-43 0z m-128 235l0-277z"/>
<glyph glyph-name="download-fill0-wght400-grad0-opsz24" unicode="&#102;" d="M256 171l-107 106 30 31 56-55 0 174 42 0 0-174 56 55 30-31z m-128-86c-12 0-22 5-30 13-8 8-13 18-13 30l0 64 43 0 0-64 256 0 0 64 43 0 0-64c0-12-5-22-13-30-8-8-18-13-30-13z"/>
<glyph glyph-name="expand-less-fill0-wght400-grad0-opsz24-1" unicode="&#103;" d="M158 184l-30 30 128 128 128-128-30-30-98 98z"/>
<glyph glyph-name="expand-more-fill0-wght400-grad0-opsz24-1" unicode="&#104;" d="M256 184l-128 128 30 30 98-98 98 98 30-30z"/>
<glyph glyph-name="keyboard-double-arrow-down-fill0-wght400-grad0-opsz24" unicode="&#105;" d="M256 107l-128 128 30 30 98-98 98 98 30-30z m0 128l-128 128 30 30 98-98 98 98 30-30z"/>
<glyph glyph-name="lists-fill0-wght400-grad0-opsz24" unicode="&#106;" d="M43 85l0 86 85 0 0-86z m128 0l0 86 298 0 0-86z m-128 128l0 86 85 0 0-86z m128 0l0 86 298 0 0-86z m-128 128l0 86 85 0 0-86z m128 0l0 86 298 0 0-86z"/>
<glyph glyph-name="mail-fill0-wght400-grad0-opsz24" unicode="&#107;" d="M85 85c-11 0-21 5-30 13-8 8-12 18-12 30l0 256c0 12 4 22 12 30 9 8 19 13 30 13l342 0c11 0 21-5 30-13 8-8 12-18 12-30l0-256c0-12-4-22-12-30-9-8-19-13-30-13z m171 150l-171 106 0-213 342 0 0 213z m0 42l171 107-342 0z m-171 64l0 43 0-256z"/>
<glyph glyph-name="menu-fill0-wght400-grad0-opsz24" unicode="&#108;" d="M64 128l0 43 384 0 0-43z m0 107l0 42 384 0 0-42z m0 106l0 43 384 0 0-43z"/>
<glyph glyph-name="menu-open-fill0-wght400-grad0-opsz24" unicode="&#109;" d="M64 128l0 43 277 0 0-43z m354 21l-107 107 107 107 30-30-77-77 77-77z m-354 86l0 42 213 0 0-42z m0 106l0 43 277 0 0-43z"/>
<glyph glyph-name="more-horiz-fill0-wght400-grad0-opsz24" unicode="&#110;" d="M128 213c-12 0-22 5-30 13-8 8-13 18-13 30 0 12 5 22 13 30 8 8 18 13 30 13 12 0 22-5 30-13 8-8 13-18 13-30 0-12-5-22-13-30-8-8-18-13-30-13z m128 0c-12 0-22 5-30 13-8 8-13 18-13 30 0 12 5 22 13 30 8 8 18 13 30 13 12 0 22-5 30-13 8-8 13-18 13-30 0-12-5-22-13-30-8-8-18-13-30-13z m128 0c-12 0-22 5-30 13-8 8-13 18-13 30 0 12 5 22 13 30 8 8 18 13 30 13 12 0 22-5 30-13 8-8 13-18 13-30 0-12-5-22-13-30-8-8-18-13-30-13z"/>
<glyph glyph-name="more-vert-fill0-wght400-grad0-opsz24" unicode="&#111;" d="M256 85c-12 0-22 5-30 13-8 8-13 18-13 30 0 12 5 22 13 30 8 8 18 13 30 13 12 0 22-5 30-13 8-8 13-18 13-30 0-12-5-22-13-30-8-8-18-13-30-13z m0 128c-12 0-22 5-30 13-8 8-13 18-13 30 0 12 5 22 13 30 8 8 18 13 30 13 12 0 22-5 30-13 8-8 13-18 13-30 0-12-5-22-13-30-8-8-18-13-30-13z m0 128c-12 0-22 5-30 13-8 8-13 18-13 30 0 12 5 22 13 30 8 8 18 13 30 13 12 0 22-5 30-13 8-8 13-18 13-30 0-12-5-22-13-30-8-8-18-13-30-13z"/>
<glyph glyph-name="open-in-full-fill0-wght400-grad0-opsz24" unicode="&#112;" d="M64 64l0 171 43 0 0-98 268 268-98 0 0 43 171 0 0-171-43 0 0 98-268-268 98 0 0-43z"/>
<glyph glyph-name="open-in-new-fill0-wght400-grad0-opsz24" unicode="&#113;" d="M107 64c-12 0-22 4-30 13-9 8-13 18-13 30l0 298c0 12 4 22 13 30 8 9 18 13 30 13l149 0 0-43-149 0 0-298 298 0 0 149 43 0 0-149c0-12-4-22-13-30-8-9-18-13-30-13z m100 113l-30 30 198 198-76 0 0 43 149 0 0-149-43 0 0 76z"/>
<glyph glyph-name="refresh-fill0-wght400-grad0-opsz24" unicode="&#114;" d="M256 85c-48 0-88 17-121 50-33 33-50 73-50 121 0 48 17 88 50 121 33 33 73 50 121 50 25 0 48-5 70-16 23-10 42-24 58-43l0 59 43 0 0-150-150 0 0 43 90 0c-11 20-27 36-47 47-19 11-41 17-64 17-36 0-66-12-91-37-25-25-37-55-37-91 0-36 12-66 37-91 25-25 55-37 91-37 27 0 52 8 74 23 22 16 38 37 47 62l44 0c-10-37-30-68-60-92-31-24-66-36-105-36z"/>
<glyph glyph-name="search-fill0-wght400-grad0-opsz24" unicode="&#115;" d="M418 64l-134 134c-11-8-23-15-37-20-14-5-29-7-44-7-39 0-72 13-99 40-27 27-40 60-40 98 0 39 13 72 40 99 27 27 60 40 99 40 38 0 71-13 98-40 27-27 40-60 40-99 0-15-2-30-7-44-5-14-12-26-20-37l134-134z m-215 149c26 0 49 10 68 28 18 19 28 42 28 68 0 27-10 50-28 68-19 19-42 28-68 28-27 0-50-9-68-28-19-18-28-41-28-68 0-26 9-49 28-68 18-18 41-28 68-28z"/>
<glyph glyph-name="select-check-box-fill0-wght400-grad0-opsz24" unicode="&#116;" d="M107 64c-12 0-22 4-30 13-9 8-13 18-13 30l0 298c0 12 4 22 13 30 8 9 18 13 30 13l298 0c3 0 6 0 8-1 3 0 5-1 8-2l-40-40-274 0 0-298 298 0 0 142 43 42 0-184c0-12-4-22-13-30-8-9-18-13-30-13z m139 85l-121 121 30 30 91-91 196 196 30-30z"/>
<glyph glyph-name="send-fill0-wght400-grad0-opsz24" unicode="&#117;" d="M64 85l0 342 405-171z m43 64l252 107-252 107 0-75 128-32-128-32z m0 0l0 214z"/>
<glyph glyph-name="toggle-off-fill0-wght400-grad0-opsz24" unicode="&#118;" d="M149 128c-35 0-65 12-90 37-25 25-38 55-38 91 0 36 13 66 38 91 25 25 55 37 90 37l214 0c35 0 65-12 90-37 25-25 38-55 38-91 0-36-13-66-38-91-25-25-55-37-90-37z m0 43l214 0c23 0 43 8 60 25 17 16 25 37 25 60 0 23-8 44-25 60-17 17-37 25-60 25l-214 0c-23 0-43-8-60-25-17-16-25-37-25-60 0-23 8-44 25-60 17-17 37-25 60-25z m0 21c18 0 33 6 46 19 12 12 18 27 18 45 0 18-6 33-18 45-13 13-28 19-46 19-17 0-33-6-45-19-12-12-19-27-19-45 0-18 7-33 19-45 12-13 28-19 45-19z m107 64z"/>
<glyph glyph-name="toggle-on-fill0-wght400-grad0-opsz24" unicode="&#119;" d="M149 128c-35 0-65 12-90 37-25 25-38 55-38 91 0 36 13 66 38 91 25 25 55 37 90 37l214 0c35 0 65-12 90-37 25-25 38-55 38-91 0-36-13-66-38-91-25-25-55-37-90-37z m0 43l214 0c23 0 43 8 60 25 17 16 25 37 25 60 0 23-8 44-25 60-17 17-37 25-60 25l-214 0c-23 0-43-8-60-25-17-16-25-37-25-60 0-23 8-44 25-60 17-17 37-25 60-25z m214 21c17 0 33 6 45 19 12 12 19 27 19 45 0 18-7 33-19 45-12 13-28 19-45 19-18 0-33-6-46-19-12-12-18-27-18-45 0-18 6-33 18-45 13-13 28-19 46-19z m-107 64z"/>
<glyph glyph-name="undo-fill0-wght400-grad0-opsz24" unicode="&#120;" d="M149 107l0 42 152 0c22 0 42 7 58 22 17 14 25 32 25 53 0 21-8 39-25 53-16 15-36 22-58 22l-135 0 56-56-30-30-107 107 107 107 30-30-56-56 135 0c34 0 64-11 89-33 24-23 37-51 37-84 0-33-13-61-37-84-25-22-55-33-89-33z"/>
</font>
</defs>
</svg>
