<?xml version="1.0" standalone="no"?>
<!DOCTYPE svg PUBLIC "-//W3C//DTD SVG 1.1//EN" "http://www.w3.org/Graphics/SVG/1.1/DTD/svg11.dtd">
<svg xmlns="http://www.w3.org/2000/svg">
<metadata>Generated by Fontastic.me</metadata>
<defs>
<font id="linea" horiz-adv-x="512">
<font-face font-family="linea" units-per-em="512" ascent="480" descent="-32"/>
<missing-glyph horiz-adv-x="512" />

<glyph glyph-name="add" unicode="&#97;" d="M256 53c-112 0-202 91-202 203 0 112 90 203 202 203 112 0 203-91 203-203 0-112-91-203-203-203z m0 384c-100 0-181-81-181-181 0-100 81-181 181-181 100 0 182 81 182 181 0 100-82 181-182 181z m0-298c-6 0-11 4-11 10l0 214c0 6 5 10 11 10 6 0 11-4 11-10l0-214c0-6-5-10-11-10z m107 106l-214 0c-6 0-10 5-10 11 0 6 4 11 10 11l214 0c6 0 10-5 10-11 0-6-4-11-10-11z"/>
<glyph glyph-name="add-person" unicode="&#98;" d="M256 277c-47 0-85 39-85 86 0 47 38 85 85 85 47 0 85-38 85-85 0-47-38-86-85-86z m0 150c-35 0-64-29-64-64 0-36 29-64 64-64 35 0 64 28 64 64 0 35-29 64-64 64z m-192-352c-2 0-4 0-6 2-5 3-6 10-3 14 48 71 121 112 201 112 31 0 61-7 89-18 6-3 8-9 6-15-2-5-8-7-14-5-26 11-53 16-81 16-73 0-140-37-183-102-2-3-6-4-9-4z m331-11c-6 0-11 5-11 11l0 85c0 6 5 11 11 11 6 0 10-5 10-11l0-85c0-6-4-11-10-11z m42 43l-85 0c-6 0-11 4-11 10 0 6 5 11 11 11l85 0c6 0 11-5 11-11 0-6-5-10-11-10z"/>
<glyph glyph-name="alert-sign" unicode="&#99;" d="M256 64c-23 0-43 19-43 43 0 23 20 42 43 42 23 0 43-19 43-42 0-24-20-43-43-43z m0 64c-12 0-21-10-21-21 0-12 9-22 21-22 12 0 21 10 21 22 0 11-9 21-21 21z m32 43l-64 0c-5 0-10 4-11 9l-32 256c0 3 1 6 3 8 2 3 5 4 8 4l128 0c3 0 6-1 8-4 2-2 3-5 3-8l-32-256c-1-5-6-9-11-9z m-55 21l46 0 29 235-104 0z"/>
<glyph glyph-name="alert-sign-circle" unicode="&#100;" d="M256 53c-112 0-203 91-203 203 0 112 91 203 203 203 112 0 203-91 203-203 0-112-91-203-203-203z m0 384c-100 0-181-81-181-181 0-100 81-181 181-181 100 0 181 81 181 181 0 100-81 181-181 181z m19-224l-38 0c-5 0-10 4-10 10l-19 171c0 3 1 6 3 8 2 2 5 3 8 3l74 0c3 0 6-1 8-3 2-3 3-6 3-9l-19-170c0-6-5-10-10-10z m-28 22l18 0 16 149-50 0z m9-128c-23 0-43 19-43 42 0 24 20 43 43 43 23 0 43-19 43-43 0-23-20-42-43-42z m0 64c-12 0-21-10-21-22 0-11 9-21 21-21 12 0 21 10 21 21 0 12-9 22-21 22z"/>
<glyph glyph-name="alert-sign-triangle" unicode="&#101;" d="M448 65l-384 0c-4 0-7 2-9 5-2 3-2 7 0 10l192 362c3 7 15 7 18 0l192-362c2-3 2-7 0-10-2-3-5-5-9-5z m-366 21l348 0-174 328z m174 95c-6 0-11 5-11 11l0 128c0 6 5 11 11 11 6 0 11-5 11-11l0-128c0-6-5-11-11-11z m0-64c-6 0-11 5-11 11l0 21c0 6 5 11 11 11 6 0 11-5 11-11l0-21c0-6-5-11-11-11z"/>
<glyph glyph-name="badge" unicode="&#102;" d="M256 192c-71 0-128 57-128 128 0 71 57 128 128 128 71 0 128-57 128-128 0-71-57-128-128-128z m0 235c-59 0-107-48-107-107 0-59 48-107 107-107 59 0 107 48 107 107 0 59-48 107-107 107z m-64-374c-1 0-2 0-4 1l-40 16-82-17c-4-1-8 1-11 5-2 3-2 7 0 11l97 171c3 5 9 7 14 4 6-3 7-9 4-14l-85-151 62 13c2 0 4 0 6-1l34-14 60 111c3 5 9 7 14 5 5-3 7-10 5-15l-64-120c-2-3-6-5-10-5z m128 0c-3 0-7 2-9 6l-64 119c-3 5-1 12 4 15 5 3 12 1 15-5l59-111 34 14c2 1 4 1 6 1l63-13-86 151c-3 5-1 11 4 14 5 3 12 1 15-4l97-171c2-4 2-8-1-11-2-4-6-6-10-5l-83 17-40-16c-1-1-2-1-4-1z m-75 203c-2 0-5 1-7 3l-43 43c-4 4-4 11 0 15 4 4 11 4 15 0l34-34 57 75c3 5 10 6 15 3 4-4 5-11 2-15l-64-86c-2-2-5-4-8-4 0 0 0 0-1 0z"/>
<glyph glyph-name="battery-charge" unicode="&#103;" d="M373 128l-298 0c-6 0-11 5-11 11l0 234c0 6 5 11 11 11l298 0c6 0 11-5 11-11l0-234c0-6-5-11-11-11z m-288 21l278 0 0 214-278 0z m352 43l-64 0c-6 0-10 5-10 11 0 6 4 10 10 10l54 0 0 86-54 0c-6 0-10 4-10 10 0 6 4 11 10 11l64 0c6 0 11-5 11-11l0-106c0-6-5-11-11-11z m-256 0c-3 0-7 2-9 5-3 5-1 12 4 15l51 31-28 15c-4 1-6 5-6 9 0 4 2 7 5 9l62 43c5 3 12 1 15-3 3-5 2-12-3-15l-48-32 29-16c4-1 6-5 6-9 0-4-2-7-5-9l-67-41c-2-2-4-2-6-2z"/>
<glyph glyph-name="battery-empty" unicode="&#104;" d="M128 75c-2 0-4 0-5 1-5 3-7 9-4 15l192 341c3 5 9 7 14 4 5-3 7-9 4-15l-192-341c-2-3-5-5-9-5z m245 53l-298 0c-6 0-11 5-11 11l0 234c0 6 5 11 11 11l298 0c6 0 11-5 11-11l0-234c0-6-5-11-11-11z m-288 21l278 0 0 214-278 0z m352 43l-64 0c-6 0-10 5-10 11 0 6 4 10 10 10l54 0 0 86-54 0c-6 0-10 4-10 10 0 6 4 11 10 11l64 0c6 0 11-5 11-11l0-106c0-6-5-11-11-11z"/>
<glyph glyph-name="battery-full" unicode="&#105;" d="M373 128l-298 0c-6 0-11 5-11 11l0 234c0 6 5 11 11 11l298 0c6 0 11-5 11-11l0-234c0-6-5-11-11-11z m-288 21l278 0 0 214-278 0z m75 22l-43 0c-6 0-10 4-10 10l0 150c0 6 4 10 10 10l43 0c6 0 11-4 11-10l0-150c0-6-5-10-11-10z m-32 21l21 0 0 128-21 0z m117-21l-42 0c-6 0-11 4-11 10l0 150c0 6 5 10 11 10l42 0c6 0 11-4 11-10l0-150c0-6-5-10-11-10z m-32 21l22 0 0 128-22 0z m118-21l-43 0c-6 0-11 4-11 10l0 150c0 6 5 10 11 10l43 0c6 0 10-4 10-10l0-150c0-6-4-10-10-10z m-32 21l21 0 0 128-21 0z m138 0l-64 0c-6 0-10 5-10 11 0 6 4 10 10 10l54 0 0 86-54 0c-6 0-10 4-10 10 0 6 4 11 10 11l64 0c6 0 11-5 11-11l0-106c0-6-5-11-11-11z"/>
<glyph glyph-name="battery-half" unicode="&#106;" d="M373 128l-298 0c-6 0-11 5-11 11l0 234c0 6 5 11 11 11l298 0c6 0 11-5 11-11l0-234c0-6-5-11-11-11z m-288 21l278 0 0 214-278 0z m75 22l-43 0c-6 0-10 4-10 10l0 150c0 6 4 10 10 10l43 0c6 0 11-4 11-10l0-150c0-6-5-10-11-10z m-32 21l21 0 0 128-21 0z m117-21l-42 0c-6 0-11 4-11 10l0 150c0 6 5 10 11 10l42 0c6 0 11-4 11-10l0-150c0-6-5-10-11-10z m-32 21l22 0 0 128-22 0z m224 0l-64 0c-6 0-10 5-10 11 0 6 4 10 10 10l54 0 0 86-54 0c-6 0-10 4-10 10 0 6 4 11 10 11l64 0c6 0 11-5 11-11l0-106c0-6-5-11-11-11z"/>
<glyph glyph-name="battery-low-20" unicode="&#107;" d="M373 128l-298 0c-6 0-11 5-11 11l0 234c0 6 5 11 11 11l298 0c6 0 11-5 11-11l0-234c0-6-5-11-11-11z m-288 21l278 0 0 214-278 0z m32 32c-6 0-10 5-10 11l0 128c0 6 4 11 10 11 6 0 11-5 11-11l0-128c0-6-5-11-11-11z m320 11l-64 0c-6 0-10 5-10 11 0 6 4 10 10 10l54 0 0 86-54 0c-6 0-10 4-10 10 0 6 4 11 10 11l64 0c6 0 11-5 11-11l0-106c0-6-5-11-11-11z"/>
<glyph glyph-name="book" unicode="&#108;" d="M352 64l-203 0c-23 0-42 19-42 43 0 23 19 42 42 42l246 0c6 0 10-4 10-10 0-6-4-11-10-11l-246 0c-11 0-21-10-21-21 0-12 10-22 21-22l192 0 0 32c0 6 5 11 11 11 6 0 11-5 11-11l0-42c0-6-5-11-11-11z m-235 43c-6 0-10 4-10 10l0 299c0 18 14 32 32 32l234 0c18 0 32-14 32-32l0-277c0-6-4-11-10-11-6 0-11 5-11 11l0 277c0 6-5 11-11 11l-234 0c-6 0-11-5-11-11l0-299c0-6-5-10-11-10z m214 234l-150 0c-6 0-10 5-10 11 0 6 4 11 10 11l150 0c6 0 10-5 10-11 0-6-4-11-10-11z m-32-64l-118 0c-6 0-10 5-10 11 0 6 4 11 10 11l118 0c6 0 10-5 10-11 0-6-4-11-10-11z m32-64l-150 0c-6 0-10 5-10 11 0 6 4 11 10 11l150 0c6 0 10-5 10-11 0-6-4-11-10-11z"/>
<glyph glyph-name="bookmark-1" unicode="&#109;" d="M437 64l-362 0c-6 0-11 5-11 11l0 362c0 6 5 11 11 11l362 0c6 0 11-5 11-11l0-362c0-6-5-11-11-11z m-352 21l342 0 0 342-342 0z m267 107c-2 0-4 1-6 2l-90 66-90-66c-3-2-7-3-11-1-3 2-6 6-6 10l0 234c0 6 5 11 11 11 6 0 11-5 11-11l0-213 79 58c3 3 9 3 12 0l79-58 0 213c0 6 5 11 11 11 6 0 11-5 11-11l0-234c0-4-3-8-6-10-2-1-3-1-5-1z"/>
<glyph glyph-name="bookmark-2" unicode="&#110;" d="M437 64c-2 0-4 1-6 2l-175 117-175-117c-4-2-8-2-11-1-4 2-6 6-6 10l0 362c0 6 5 11 11 11l362 0c6 0 11-5 11-11l0-362c0-4-2-8-6-10-1-1-3-1-5-1z m-181 142c2 0 4 0 6-1l165-110 0 332-342 0 0-332 165 109c2 2 4 2 6 2z"/>
<glyph glyph-name="box" unicode="&#111;" d="M416 64l-320 0c-18 0-32 14-32 32l0 277c0 6 5 11 11 11l362 0c6 0 11-5 11-11l0-277c0-18-14-32-32-32z m-331 299l0-267c0-6 5-11 11-11l320 0c6 0 11 5 11 11l0 267z m352 0c-2 0-5 1-7 3l-58 58c-2 2-5 3-7 3l-218 0c-2 0-5-1-7-4l-58-57c-4-4-11-4-15 0-4 4-4 11 0 15l58 58c6 6 14 9 22 9l217 0c9 0 17-3 23-9l58-58c4-4 4-11 0-15-2-2-5-3-8-3z m-106-107l-150 0c-6 0-10 5-10 11 0 6 4 10 10 10l150 0c6 0 10-4 10-10 0-6-4-11-10-11z"/>
<glyph glyph-name="calculator-1" unicode="&#112;" d="M437 64l-362 0c-6 0-11 5-11 11l0 362c0 6 5 11 11 11l362 0c6 0 11-5 11-11l0-362c0-6-5-11-11-11z m-352 21l342 0 0 342-342 0z m352 235l-362 0c-6 0-11 5-11 11 0 6 5 10 11 10l362 0c6 0 11-4 11-10 0-6-5-11-11-11z m-53-43l-43 0c-6 0-10 5-10 11 0 6 4 11 10 11l43 0c6 0 11-5 11-11 0-6-5-11-11-11z m-11-149l-21 0c-6 0-11 5-11 11l0 21c0 6 5 11 11 11l21 0c6 0 11-5 11-11l0-21c0-6-5-11-11-11z m-106 0l-22 0c-6 0-10 5-10 11l0 21c0 6 4 11 10 11l22 0c6 0 10-5 10-11l0-21c0-6-4-11-10-11z m-107 0l-21 0c-6 0-11 5-11 11l0 21c0 6 5 11 11 11l21 0c6 0 11-5 11-11l0-21c0-6-5-11-11-11z m117 149l-42 0c-6 0-11 5-11 11 0 6 5 11 11 11l42 0c6 0 11-5 11-11 0-6-5-11-11-11z m-106 0l-43 0c-6 0-11 5-11 11 0 6 5 11 11 11l43 0c6 0 10-5 10-11 0-6-4-11-10-11z m213-64l-43 0c-6 0-10 5-10 11 0 6 4 11 10 11l43 0c6 0 11-5 11-11 0-6-5-11-11-11z m-107 0l-42 0c-6 0-11 5-11 11 0 6 5 11 11 11l42 0c6 0 11-5 11-11 0-6-5-11-11-11z m-106 0l-43 0c-6 0-11 5-11 11 0 6 5 11 11 11l43 0c6 0 10-5 10-11 0-6-4-11-10-11z"/>
<glyph glyph-name="calculator-2" unicode="&#113;" d="M139 299c-6 0-11 4-11 10l0 128c0 6 5 11 11 11 6 0 10-5 10-11l0-128c0-6-4-10-10-10z m64 64l-128 0c-6 0-11 4-11 10 0 6 5 11 11 11l128 0c6 0 10-5 10-11 0-6-4-10-10-10z m234 0l-128 0c-6 0-10 4-10 10 0 6 4 11 10 11l128 0c6 0 11-5 11-11 0-6-5-10-11-10z m-245-286c-3 0-5 1-7 3l-107 104c-4 4-4 11 0 15 4 5 11 5 15 1l106-105c5-4 5-11 1-15-2-2-5-3-8-3z m-107-2c-2 0-5 1-7 3-4 4-4 11 0 15l107 105c4 4 10 4 15-1 4-4 4-11-1-15l-106-104c-2-2-5-3-8-3z m171-22c-6 0-11 5-11 11l0 384c0 6 5 11 11 11 6 0 11-5 11-11l0-384c0-6-5-11-11-11z m192 192l-384 0c-6 0-11 5-11 11 0 6 5 11 11 11l384 0c6 0 11-5 11-11 0-6-5-11-11-11z m-75-96l-21 0c-6 0-11 5-11 11l0 21c0 6 5 11 11 11l21 0c6 0 11-5 11-11l0-21c0-6-5-11-11-11z m0-64l-21 0c-6 0-11 5-11 11l0 21c0 6 5 11 11 11l21 0c6 0 11-5 11-11l0-21c0-6-5-11-11-11z"/>
<glyph glyph-name="calendar" unicode="&#114;" d="M416 64l-320 0c-18 0-32 14-32 32l0 277c0 18 14 32 32 32l320 0c18 0 32-14 32-32l0-277c0-18-14-32-32-32z m-320 320c-6 0-11-5-11-11l0-277c0-6 5-11 11-11l320 0c6 0 11 5 11 11l0 277c0 6-5 11-11 11z m341-107l-362 0c-6 0-11 5-11 11 0 6 5 11 11 11l362 0c6 0 11-5 11-11 0-6-5-11-11-11z m-277 64c-6 0-11 5-11 11l0 85c0 6 5 11 11 11 6 0 11-5 11-11l0-85c0-6-5-11-11-11z m192 0c-6 0-11 5-11 11l0 85c0 6 5 11 11 11 6 0 11-5 11-11l0-85c0-6-5-11-11-11z"/>
<glyph glyph-name="calendar-check" unicode="&#115;" d="M416 64l-320 0c-18 0-32 14-32 32l0 277c0 18 14 32 32 32l320 0c18 0 32-14 32-32l0-277c0-18-14-32-32-32z m-320 320c-6 0-11-5-11-11l0-277c0-6 5-11 11-11l320 0c6 0 11 5 11 11l0 277c0 6-5 11-11 11z m64-43c-6 0-11 5-11 11l0 85c0 6 5 11 11 11 6 0 11-5 11-11l0-85c0-6-5-11-11-11z m192 0c-6 0-11 5-11 11l0 85c0 6 5 11 11 11 6 0 11-5 11-11l0-85c0-6-5-11-11-11z m-117-202c-3 0-6 1-8 3l-64 64c-4 4-4 11 0 15 4 4 11 4 15 0l56-56 99 119c4 5 11 5 15 1 5-3 5-10 1-14l-106-128c-2-3-5-4-8-4 0 0 0 0 0 0z"/>
<glyph glyph-name="camera-1" unicode="&#116;" d="M256 128c-47 0-85 38-85 85 0 47 38 86 85 86 47 0 85-39 85-86 0-47-38-85-85-85z m0 149c-35 0-64-28-64-64 0-35 29-64 64-64 35 0 64 29 64 64 0 36-29 64-64 64z m-96 43l-43 0c-6 0-10 5-10 11 0 6 4 10 10 10l43 0c6 0 11-4 11-10 0-6-5-11-11-11z m256-235l-320 0c-18 0-32 15-32 32l0 235c0 18 14 32 32 32l55 0c3 0 6 1 8 3l30 30c6 6 14 10 22 10l89 0c9 0 17-4 23-10l30-30c2-2 5-3 8-3l55 0c18 0 32-14 32-32l0-235c0-17-14-32-32-32z m-320 278c-6 0-11-5-11-11l0-235c0-6 5-10 11-10l320 0c6 0 11 4 11 10l0 235c0 6-5 11-11 11l-55 0c-9 0-17 3-23 9l-30 30c-2 2-5 3-7 3l-90 0c-2 0-5-1-7-3l-30-30c-6-6-14-9-23-9z"/>
<glyph glyph-name="camera-2" unicode="&#117;" d="M213 149c-47 0-85 39-85 86 0 47 38 85 85 85 47 0 86-38 86-85 0-47-39-86-86-86z m0 150c-35 0-64-29-64-64 0-36 29-64 64-64 36 0 64 28 64 64 0 35-28 64-64 64z m182 0l-43 0c-6 0-11 4-11 10 0 6 5 11 11 11l43 0c6 0 10-5 10-11 0-6-4-10-10-10z m21-214l-320 0c-18 0-32 15-32 32l0 235c0 18 14 32 32 32l320 0c18 0 32-14 32-32l0-235c0-17-14-32-32-32z m-320 278c-6 0-11-5-11-11l0-235c0-6 5-10 11-10l320 0c6 0 11 4 11 10l0 235c0 6-5 11-11 11z m85 0c-6 0-10 4-10 10l0 11-43 0 0-11c0-6-5-10-11-10-6 0-10 4-10 10l0 22c0 6 4 10 10 10l64 0c6 0 11-4 11-10l0-22c0-6-5-10-11-10z m214 0c-6 0-11 4-11 10 0-6-5-10-11-10-6 0-10 4-10 10l0 22c0 6 4 10 10 10l22 0c6 0 10-4 10-10l0-22c0-6-4-10-10-10z"/>
<glyph glyph-name="cancel-close" unicode="&#118;" d="M448 53c-3 0-6 1-7 4l-384 384c-5 4-5 10 0 15 4 4 10 4 15 0l384-384c4-5 4-11 0-15-2-3-5-4-8-4z m-384 0c-3 0-6 1-7 4-5 4-5 10 0 15l384 384c4 4 10 4 15 0 4-5 4-11 0-15l-384-384c-2-3-5-4-8-4z"/>
<glyph glyph-name="cancel-close-circle" unicode="&#119;" d="M256 53c-112 0-203 91-203 203 0 112 91 203 203 203 112 0 203-91 203-203 0-112-91-203-203-203z m0 384c-100 0-181-81-181-181 0-100 81-181 181-181 100 0 181 81 181 181 0 100-81 181-181 181z m76-267c-3 0-6 1-8 3l-151 151c-4 4-4 11 0 15 4 4 11 4 15 0l151-151c4-4 4-11 0-15-2-2-5-3-7-3z m-152 0c-2 0-5 1-7 3-4 4-4 11 0 15l151 151c4 4 11 4 15 0 4-4 4-11 0-15l-151-151c-2-2-5-3-8-3z"/>
<glyph glyph-name="charge" unicode="&#120;" d="M293 356c-3 0-6 1-8 3-4 5-4 11 0 15l50 50c4 4 11 4 15 0 4-5 4-11 0-15l-49-50c-3-2-5-3-8-3z m74-74c-3 0-6 1-8 3-4 5-4 11 0 16l50 49c4 4 10 4 15 0 4-4 4-11 0-15l-50-50c-2-2-5-3-7-3z m-74-113c-9 0-18 4-25 11l-88 88c-14 14-14 36 0 50l81 81c4 4 11 4 15 0l123-123c4-4 4-11 0-15l-81-81c-7-7-16-11-25-11z m-25 207l-73-73c-6-6-6-15 0-20l88-88c5-6 15-6 20 0l73 73z m148-143c-3 0-6 1-7 3l-173 173c-4 4-4 10 0 15 4 4 11 4 15 0l173-173c4-4 4-11 0-15-2-2-5-3-8-3z m-320-148c-3 0-6 1-7 4-5 4-5 10 0 15l135 135c4 4 11 4 15 0 4-4 4-11 0-15l-135-135c-2-3-5-4-8-4z"/>
<glyph glyph-name="chart-statistic-1" unicode="&#121;" d="M459 64l-384 0c-6 0-11 5-11 11l0 362c0 6 5 11 11 11 6 0 10-5 10-11l0-352 374 0c6 0 10-4 10-10 0-6-4-11-10-11z m-256 0l-86 0c-6 0-10 5-10 11l0 106c0 6 4 11 10 11l86 0c6 0 10-5 10-11l0-106c0-6-4-11-10-11z m-75 21l64 0 0 86-64 0z m203-21l-86 0c-6 0-10 5-10 11l0 213c0 6 4 11 10 11l86 0c6 0 10-5 10-11l0-213c0-6-4-11-10-11z m-75 21l64 0 0 192-64 0z m203-21l-86 0c-6 0-10 5-10 11l0 320c0 6 4 10 10 10l86 0c6 0 10-4 10-10l0-320c0-6-4-11-10-11z m-75 21l64 0 0 299-64 0z"/>
<glyph glyph-name="chart-statistic-2" unicode="&#122;" d="M139 128c-18 0-32 14-32 32 0 18 14 32 32 32 17 0 32-14 32-32 0-18-15-32-32-32z m0 43c-6 0-11-5-11-11 0-6 5-11 11-11 6 0 10 5 10 11 0 6-4 11-10 11z m85 42c-18 0-32 15-32 32 0 18 14 32 32 32 18 0 32-14 32-32 0-17-14-32-32-32z m0 43c-6 0-11-5-11-11 0-6 5-10 11-10 6 0 11 4 11 10 0 6-5 11-11 11z m107-107c-18 0-32 15-32 32 0 18 14 32 32 32 17 0 32-14 32-32 0-17-15-32-32-32z m0 43c-6 0-11-5-11-11 0-6 5-10 11-10 6 0 10 4 10 10 0 6-4 11-10 11z m106-128l-362 0c-6 0-11 5-11 11l0 362c0 6 5 11 11 11 6 0 10-5 10-11l0-352 352 0c6 0 11-4 11-10 0-6-5-11-11-11z m-21 192c-18 0-32 14-32 32 0 18 14 32 32 32 18 0 32-14 32-32 0-18-14-32-32-32z m0 43c-6 0-11-5-11-11 0-6 5-11 11-11 6 0 11 5 11 11 0 6-5 11-11 11z m-256-128c-3 0-6 1-7 3-5 4-5 11 0 15l42 43c4 4 11 4 15 0 5-5 5-11 0-15l-42-43c-2-2-5-3-8-3z m149 21c-2 0-4 1-6 2l-64 42c-5 4-6 10-3 15 4 5 10 6 15 3l64-43c5-3 6-9 3-14-2-3-5-5-9-5z m43 0c-2 0-4 1-6 2-5 3-6 10-3 14l43 64c3 5 10 7 14 3 5-3 7-9 3-14l-42-64c-2-3-6-5-9-5z"/>
<glyph glyph-name="chart-statistic-3" unicode="&#65;" d="M416 128l-320 0c-18 0-32 14-32 32l0 235c0 17 14 32 32 32l320 0c18 0 32-15 32-32l0-235c0-18-14-32-32-32z m-320 277c-6 0-11-4-11-10l0-235c0-6 5-11 11-11l320 0c6 0 11 5 11 11l0 235c0 6-5 10-11 10z m256-341l-192 0c-5 0-9 3-10 7-2 5 0 9 4 12l85 64c2 1 4 2 6 2l22 0c2 0 4-1 6-2l85-64c4-3 6-7 4-12-1-4-6-7-10-7z m-160 21l128 0-57 43-14 0z m-11 86l-64 0c-6 0-10 4-10 10l0 86c0 6 4 10 10 10l64 0c6 0 11-4 11-10l0-86c0-6-5-10-11-10z m-53 21l43 0 0 64-43 0z m160-21l-64 0c-6 0-11 4-11 10l0 128c0 6 5 11 11 11l64 0c6 0 11-5 11-11l0-128c0-6-5-10-11-10z m-53 21l42 0 0 107-42 0z m160-21l-64 0c-6 0-11 4-11 10l0 171c0 6 5 11 11 11l64 0c6 0 10-5 10-11l0-171c0-6-4-10-10-10z m-54 21l43 0 0 149-43 0z"/>
<glyph glyph-name="chat-message" unicode="&#66;" d="M416 113c-8 0-16 3-22 8l-27 26c-2 1-5 2-7 2l-179 0c-17 0-32 15-32 32l0 150c0 17 15 32 32 32l235 0c18 0 32-15 32-32l0-186c0-13-7-24-19-30-4-2-9-2-13-2z m-235 228c-6 0-10-4-10-10l0-150c0-6 4-10 10-10l179 0c8 0 15-3 21-9l28-25c4-5 10-3 11-2 2 0 7 3 7 10l0 186c0 6-5 10-11 10z m-85-168c-4 0-8 1-12 3-12 5-20 16-20 30l0 210c0 18 14 32 32 32l256 0c18 0 32-14 32-32l0-64c0-6-5-11-11-11-6 0-10 5-10 11l0 64c0 6-5 11-11 11l-256 0c-6 0-11-5-11-11l0-210c0-7 5-10 7-10 1-1 7-3 12 2l32 34c2 2 5 3 8 3l16 0c6 0 11-5 11-11 0-6-5-11-11-11l-12 0-29-30c-6-6-14-10-23-10z m277 104l-149 0c-6 0-11 5-11 11 0 6 5 11 11 11l149 0c6 0 11-5 11-11 0-6-5-11-11-11z m0-64l-149 0c-6 0-11 5-11 11 0 6 5 11 11 11l149 0c6 0 11-5 11-11 0-6-5-11-11-11z"/>
<glyph glyph-name="checkmark" unicode="&#67;" d="M211 84c-3-1-6 1-8 3l-136 152c-3 4-3 11 1 15 5 4 11 3 15-1l128-142 218 238c4 4 10 4 15 0 4-4 5-10 1-15l-226-247c-2-2-5-3-8-3z"/>
<glyph glyph-name="checkmark-circle" unicode="&#68;" d="M256 53c-112 0-203 91-203 203 0 112 91 203 203 203 112 0 203-91 203-203 0-112-91-203-203-203z m0 384c-100 0-181-81-181-181 0-100 81-181 181-181 100 0 181 81 181 181 0 100-81 181-181 181z m-21-256c-3 0-6 1-8 4l-64 64c-4 4-4 10 0 15 4 4 11 4 15 0l57-57 120 121c4 4 11 4 15 0 5-5 5-11 0-15l-128-128c-2-3-5-4-7-4z"/>
<glyph glyph-name="checkmark-square" unicode="&#69;" d="M235 181c-3 0-6 1-8 4l-64 64c-4 4-4 10 0 15 4 4 11 4 15 0l57-57 120 121c4 4 11 4 15 0 5-5 5-11 0-15l-128-128c-2-3-5-4-7-4z m202-117l-362 0c-6 0-11 5-11 11l0 362c0 6 5 11 11 11l362 0c6 0 11-5 11-11l0-362c0-6-5-11-11-11z m-352 21l342 0 0 342-342 0z"/>
<glyph glyph-name="clipboard" unicode="&#70;" d="M213 363c-23 0-42 19-42 42 0 24 19 43 42 43 24 0 43-19 43-43 0-23-19-42-43-42z m0 64c-11 0-21-10-21-22 0-11 10-21 21-21 12 0 22 10 22 21 0 12-10 22-22 22z m75-128l-149 0c-6 0-11 4-11 10 0 6 5 11 11 11l149 0c6 0 11-5 11-11 0-6-5-10-11-10z m-43-86l-106 0c-6 0-11 5-11 11 0 6 5 11 11 11l106 0c6 0 11-5 11-11 0-6-5-11-11-11z m43-85l-149 0c-6 0-11 5-11 11 0 6 5 10 11 10l149 0c6 0 11-4 11-10 0-6-5-11-11-11z m43-64l-235 0c-18 0-32 14-32 32l0 277c0 18 14 32 32 32l96 0 0-21-96 0c-6 0-11-5-11-11l0-277c0-6 5-11 11-11l235 0c6 0 10 5 10 11l0 277c0 6-4 11-10 11l-96 0 0 21 96 0c17 0 32-14 32-32l0-277c0-18-15-32-32-32z m106 256l-42 0c-6 0-11 5-11 11 0 6 5 10 11 10l42 0c6 0 11-4 11-10 0-6-5-11-11-11z m-21-256c-5 0-9 3-10 7l-21 64c-1 1-1 3-1 4l0 256c0 6 5 10 11 10l42 0c6 0 11-4 11-10l0-256c0-1 0-3-1-4l-21-64c-1-4-5-7-10-7z m-11 76l11-32 11 32 0 244-22 0z"/>
<glyph glyph-name="clipboard-2" unicode="&#71;" d="M416 64l-320 0c-18 0-32 14-32 32l0 277c0 18 14 32 32 32l128 0c6 0 11-4 11-10 0-6-5-11-11-11l-128 0c-6 0-11-5-11-11l0-277c0-6 5-11 11-11l320 0c6 0 11 5 11 11l0 277c0 6-5 11-11 11l-128 0c-6 0-11 5-11 11 0 6 5 10 11 10l128 0c18 0 32-14 32-32l0-277c0-18-14-32-32-32z m-160 299c-23 0-43 19-43 42 0 24 20 43 43 43 23 0 43-19 43-43 0-23-20-42-43-42z m0 64c-12 0-21-10-21-22 0-11 9-21 21-21 12 0 21 10 21 21 0 12-9 22-21 22z m-75-320l-42 0c-6 0-11 4-11 10l0 43c0 3 1 6 4 8l192 171c4 3 10 3 14-1l43-43c2-2 3-4 3-7 0-3-1-6-3-8l-192-171c-3-1-5-2-8-2z m-32 21l28 0 181 160-28 28-181-161z m171 117c-3 0-6 1-7 4l-32 32c-5 4-5 10 0 15 4 4 10 4 15 0l32-32c4-5 4-11 0-15-2-3-5-4-8-4z"/>
<glyph glyph-name="clock-1" unicode="&#72;" d="M256 64c-106 0-192 86-192 192 0 106 86 192 192 192 106 0 192-86 192-192 0-106-86-192-192-192z m0 363c-94 0-171-77-171-171 0-94 77-171 171-171 94 0 171 77 171 171 0 94-77 171-171 171z m11-192l-107 0c-6 0-11 4-11 10 0 6 5 11 11 11l96 0 0 96c0 6 5 11 11 11 6 0 10-5 10-11l0-107c0-6-4-10-10-10z"/>
<glyph glyph-name="clock-2" unicode="&#73;" d="M256 64c-106 0-192 86-192 192 0 106 86 192 192 192 106 0 192-86 192-192 0-106-86-192-192-192z m0 363c-94 0-171-77-171-171 0-94 77-171 171-171 94 0 171 77 171 171 0 94-77 171-171 171z m-53-246c-3 0-6 1-8 4-4 4-4 10 0 15l61 60 0 92c0 6 5 11 11 11 6 0 10-5 10-11l0-96c0-3-1-6-3-7l-64-64c-2-3-5-4-7-4z"/>
<glyph glyph-name="comment-1" unicode="&#74;" d="M96 92c-4 0-9 1-13 3-12 5-19 16-19 29l0 271c0 17 14 32 32 32l320 0c18 0 32-15 32-32l0-214c0-17-14-32-32-32l-242 0c-3 0-5-1-7-3l-49-45c-6-6-14-9-22-9z m0 313c-6 0-11-4-11-10l0-271c0-7 5-9 7-10 1-1 7-2 11 2l49 46c6 5 14 9 22 9l242 0c6 0 11 4 11 10l0 214c0 6-5 10-11 10z m213-170l-128 0c-6 0-10 4-10 10 0 6 4 11 10 11l128 0c6 0 11-5 11-11 0-6-5-10-11-10z m43 85l-171 0c-6 0-10 5-10 11 0 6 4 10 10 10l171 0c6 0 11-4 11-10 0-6-5-11-11-11z"/>
<glyph glyph-name="comment-2" unicode="&#75;" d="M256 90c-12 0-23 7-29 18l-20 41c-2 3-6 6-10 6l-101 0c-18 0-32 14-32 32l0 229c0 18 14 32 32 32l320 0c18 0 32-14 32-32l0-229c0-18-14-32-32-32l-102 0c-4 0-7-3-9-6l-20-41c-6-11-17-18-29-18z m-160 337c-6 0-11-5-11-11l0-229c0-6 5-11 11-11l102 0c12 0 23-7 28-18l20-40c4-8 16-8 19 0l21 40c5 11 16 18 28 18l102 0c6 0 10 5 10 11l0 229c1 6-4 11-10 11z m256-86l-192 0c-6 0-11 5-11 11 0 6 5 11 11 11l192 0c6 0 11-5 11-11 0-6-5-11-11-11z m0-85l-192 0c-6 0-11 5-11 11 0 6 5 10 11 10l192 0c6 0 11-4 11-10 0-6-5-11-11-11z"/>
<glyph glyph-name="compass" unicode="&#76;" d="M256 64c-106 0-192 86-192 192 0 106 86 192 192 192 106 0 192-86 192-192 0-106-86-192-192-192z m0 363c-94 0-171-77-171-171 0-94 77-171 171-171 94 0 171 77 171 171 0 94-77 171-171 171z m-75-256c-2 0-5 1-7 3-3 2-4 6-3 10l30 119c1 4 4 7 8 8l119 30c4 1 8 0 10-3 3-2 4-6 3-10l-30-119c-1-4-4-7-8-8l-119-30c-1 0-2 0-3 0z m39 121l-24-96 96 24 24 96z m81-91c-3 0-6 1-8 3l-89 89c-5 5-5 11 0 15 4 5 11 5 15 0l89-89c5-4 5-11 0-15-2-2-4-3-7-3z"/>
<glyph glyph-name="copy" unicode="&#77;" d="M331 43l-235 0c-18 0-32 14-32 32l0 234c0 18 14 32 32 32l235 0c17 0 32-14 32-32l0-234c0-18-15-32-32-32z m-235 277c-6 0-11-5-11-11l0-234c0-6 5-11 11-11l235 0c6 0 10 5 10 11l0 234c0 6-4 11-10 11z m320-171l-64 0c-6 0-11 5-11 11 0 6 5 11 11 11l64 0c6 0 11 4 11 10l0 235c0 6-5 11-11 11l-235 0c-6 0-10-5-10-11l0-64c0-6-5-11-11-11-6 0-11 5-11 11l0 64c0 18 15 32 32 32l235 0c18 0 32-14 32-32l0-235c0-17-14-32-32-32z m-256 171c-6 0-11 5-11 11l0 21c0 6 5 11 11 11 6 0 11-5 11-11l0-21c0-6-5-11-11-11z"/>
<glyph glyph-name="credit-card" unicode="&#78;" d="M437 85l-362 0c-6 0-11 5-11 11l0 320c0 6 5 11 11 11l362 0c6 0 11-5 11-11l0-320c0-6-5-11-11-11z m-352 22l342 0 0 298-342 0z m352 192l-362 0c-6 0-11 4-11 10 0 6 5 11 11 11l362 0c6 0 11-5 11-11 0-6-5-10-11-10z m-225-107l-84 0c-6 0-11 5-11 11 0 6 5 10 11 10l84 0c6 0 11-4 11-10 0-6-5-11-11-11z"/>
<glyph glyph-name="cursor" unicode="&#79;" d="M288 73c-8 0-16 3-23 9l-98 98c-4 5-10 5-15 0l-34-34c-9-9-22-12-34-7-13 5-20 17-20 30l0 247c0 18 14 32 32 32l247 0c13 0 25-7 30-20 5-12 2-25-7-35l-34-34c-4-4-4-10 0-15l98-98c12-12 12-32 0-45l-119-119c-7-6-15-9-23-9z m-128 131c8 0 16-3 23-9l98-98c4-4 10-4 15 0l119 119c4 5 4 11 0 15l-98 98c-12 13-12 33 0 46l34 34c5 4 3 10 2 11 0 2-3 7-10 7l-247 0c-6 0-11-5-11-11l0-247c0-7 5-9 7-10 1-1 7-2 11 2l34 34c7 6 15 9 23 9z"/>
<glyph glyph-name="delivery-1" unicode="&#80;" d="M128 64c-35 0-64 29-64 64 0 35 29 64 64 64 35 0 64-29 64-64 0-35-29-64-64-64z m0 107c-23 0-43-20-43-43 0-23 20-43 43-43 23 0 43 20 43 43 0 23-20 43-43 43z m256-107c-35 0-64 29-64 64 0 35 29 64 64 64 35 0 64-29 64-64 0-35-29-64-64-64z m0 107c-23 0-43-20-43-43 0-23 20-43 43-43 23 0 43 20 43 43 0 23-20 43-43 43z m-181 64l-128 0c-6 0-11 4-11 10l0 128c0 6 5 11 11 11l128 0c6 0 10-5 10-11l0-128c0-6-4-10-10-10z m-118 21l107 0 0 107-107 0z m352-64l-42 0c-6 0-11 5-11 11 0 6 5 10 11 10l42 0c6 0 11-4 11-10 0-6-5-11-11-11z m-106-85l-150 0c-6 0-10 4-10 10 0 6 4 11 10 11l150 0c6 0 10-5 10-11 0-6-4-10-10-10z m-64 0c-2 0-4 0-5 1-5 2-7 9-5 14l86 171c2 5 9 7 14 4 5-2 7-9 5-14l-86-171c-2-3-5-5-9-5z m-43 128l-149 0c-6 0-11 4-11 10 0 6 5 11 11 11l149 0c6 0 11-5 11-11 0-6-5-10-11-10z m21-128c-4 0-7 2-9 6l-64 128c-3 5-1 11 4 14 6 2 12 0 15-5l64-128c2-5 0-11-5-14-1-1-3-1-5-1z m150 64c-5 0-9 2-10 6l-43 107c0 1-1 3-1 4l0 21c0 4 3 8 6 10l2 1-40 0c-6 0-10 5-10 11 0 6 4 10 10 10l86 0c5 0 9-3 10-8 1-5-1-10-5-12l-37-18 0-13 41-105c3-5 0-11-5-13-2-1-3-1-4-1z m-299 0c-2 0-4 0-6 1-5 4-6 10-3 15l43 64c3 5 10 6 14 3 5-3 7-10 3-15l-42-64c-2-3-6-4-9-4z"/>
<glyph glyph-name="delivery-2" unicode="&#81;" d="M160 107c-29 0-53 24-53 53 0 29 24 53 53 53 29 0 53-24 53-53 0-29-24-53-53-53z m0 85c-18 0-32-14-32-32 0-18 14-32 32-32 18 0 32 14 32 32 0 18-14 32-32 32z m213-85c-29 0-53 24-53 53 0 29 24 53 53 53 30 0 54-24 54-53 0-29-24-53-54-53z m0 85c-17 0-32-14-32-32 0-18 15-32 32-32 18 0 32 14 32 32 0 18-14 32-32 32z m-256-43l-42 0c-6 0-11 5-11 11l0 107c0 6 5 10 11 10l213 0c6 0 11-4 11-10l0-64c0-6-5-11-11-11-6 0-11 5-11 11l0 53-192 0 0-85 32 0c6 0 11-5 11-11 0-6-5-11-11-11z m214 0l-128 0c-6 0-11 5-11 11 0 6 5 11 11 11l128 0c6 0 10-5 10-11 0-6-4-11-10-11z m106 0c-6 0-10 5-10 11l0 124-59 79-80 0c-6 0-11 4-11 10 0 6 5 11 11 11l85 0c4 0 7-1 9-4l64-86c1-2 2-4 2-6l0-128c0-6-5-11-11-11z m0 128l-149 0c-6 0-11 5-11 11 0 6 5 11 11 11l149 0c6 0 11-5 11-11 0-6-5-11-11-11z m0-128l-21 0c-6 0-11 5-11 11 0 6 5 11 11 11l21 0c6 0 11-5 11-11 0-6-5-11-11-11z m-149 0c-6 0-11 5-11 11l0 213c0 6 5 11 11 11 6 0 11-5 11-11l0-213c0-6-5-11-11-11z m-43 107c-6 0-10 5-10 11l0 117-128 0 0-117c0-6-5-11-11-11-6 0-11 5-11 11l0 128c0 6 5 10 11 10l149 0c6 0 11-4 11-10l0-128c0-6-5-11-11-11z"/>
<glyph glyph-name="delivery-box" unicode="&#82;" d="M416 64l-320 0c-18 0-32 14-32 32l0 299c0 17 14 32 32 32l320 0c18 0 32-15 32-32l0-299c0-18-14-32-32-32z m-320 341c-6 0-11-4-11-10l0-299c0-6 5-11 11-11l320 0c6 0 11 5 11 11l0 299c0 6-5 10-11 10z m235-133c-3 0-6 1-8 3l-67 62-67-62c-4-3-8-3-12-2-4 2-6 6-6 10l0 133c0 6 4 11 10 11 6 0 11-5 11-11l0-109 57 53c4 4 10 4 14 0l57-53 0 109c0 6 5 11 11 11 6 0 10-5 10-11l0-133c0-4-2-8-6-10-1 0-3-1-4-1z"/>
<glyph glyph-name="direction" unicode="&#83;" d="M139 256c-4 0-7 1-9 4l-64 86c-3 3-3 9 0 12l64 86c3 3 8 5 12 3 4-1 7-5 7-10l0-32 96 0c6 0 11-4 11-10l0-86c0-6-5-10-11-10l-96 0 0-32c0-5-3-9-7-10-1-1-2-1-3-1z m-51 96l40-53 0 10c0 6 5 11 11 11l96 0 0 64-96 0c-6 0-11 5-11 11l0 10z m285-288c-1 0-2 0-3 1-4 1-7 5-7 10l0 32-96 0c-6 0-11 4-11 10l0 86c0 6 5 10 11 10l96 0 0 32c0 5 3 9 7 10 4 2 9 0 12-3l64-86c3-3 3-9 0-12l-64-86c-2-3-5-4-9-4z m-96 64l96 0c6 0 11-5 11-11l0-10 40 53-40 53 0-10c0-6-5-11-11-11l-96 0z m54 171l-43 0c-6 0-11 4-11 10l0 86c0 6 5 10 11 10l43 0c6 0 10-4 10-10l0-86c0-6-4-10-10-10z m-32 21l21 0 0 64-21 0z m117-21l-43 0c-6 0-10 4-10 10l0 86c0 6 4 10 10 10l43 0c6 0 11-4 11-10l0-86c0-6-5-10-11-10z m-32 21l21 0 0 64-21 0z m-245-213l-43 0c-6 0-11 4-11 10l0 86c0 6 5 10 11 10l43 0c6 0 10-4 10-10l0-86c0-6-4-10-10-10z m-32 21l21 0 0 64-21 0z m117-21l-43 0c-6 0-10 4-10 10l0 86c0 6 4 10 10 10l43 0c6 0 11-4 11-10l0-86c0-6-5-10-11-10z m-32 21l21 0 0 64-21 0z"/>
<glyph glyph-name="divide" unicode="&#84;" d="M395 320l-278 0c-6 0-10 5-10 11 0 6 4 10 10 10l278 0c6 0 10-4 10-10 0-6-4-11-10-11z m0-149l-278 0c-6 0-10 4-10 10 0 6 4 11 10 11l278 0c6 0 10-5 10-11 0-6-4-10-10-10z"/>
<glyph glyph-name="document-1" unicode="&#85;" d="M331 64l-235 0c-18 0-32 14-32 32l0 320c0 18 14 32 32 32l167 0c9 0 18-4 24-11l68-77c5-6 8-14 8-21l0-243c0-18-15-32-32-32z m-235 363c-6 0-11-5-11-11l0-320c0-6 5-11 11-11l235 0c6 0 10 5 10 11l0 243c0 2-1 5-2 7l-68 77c-2 2-5 4-8 4z m256-128l-85 0c-18 0-32 14-32 32l0 106c0 6 4 11 10 11 6 0 11-5 11-11l0-106c0-6 5-11 11-11l85 0c6 0 11-5 11-11 0-6-5-10-11-10z m85 64l-42 0c-6 0-11 4-11 10 0 6 5 11 11 11l42 0c6 0 11-5 11-11 0-6-5-10-11-10z m-21-299c-4 0-9 3-10 7l-21 64c-1 1-1 3-1 4l0 298c0 6 5 11 11 11l42 0c6 0 11-5 11-11l0-298c0-1 0-3-1-4l-21-64c-1-4-6-7-10-7z m-11 76l11-32 11 32 0 287-22 0z m-96-12l-192 0c-6 0-10 5-10 11 0 6 4 10 10 10l192 0c6 0 11-4 11-10 0-6-5-11-11-11z m-106 171l-86 0c-6 0-10 4-10 10 0 6 4 11 10 11l86 0c6 0 10-5 10-11 0-6-4-10-10-10z m106-86l-192 0c-6 0-10 5-10 11 0 6 4 11 10 11l192 0c6 0 11-5 11-11 0-6-5-11-11-11z"/>
<glyph glyph-name="download" unicode="&#86;" d="M256 171c-10 0-19 4-25 11l-99 108c-9 10-11 23-6 34 5 12 18 20 32 20 7 0 13 5 13 11l0 50c0 18 15 32 34 32l102 0c19 0 34-14 34-32l0-50c0-6 6-11 13-11 14 0 27-8 32-20 5-11 3-24-6-34l-99-108c-6-7-15-11-25-11z m-51 245c-7 0-13-5-13-11l0-50c0-18-15-32-34-32-7 0-11-4-13-7 0-3-1-7 2-11l100-109c5-5 13-5 18 0l100 109c4 4 3 8 2 11-2 3-6 7-13 7-19 0-34 14-34 32l0 50c0 6-6 11-13 11z m211-352l-320 0c-18 0-32 14-32 32 0 18 14 32 32 32l320 0c18 0 32-14 32-32 0-18-14-32-32-32z m-320 43c-6 0-11-5-11-11 0-6 5-11 11-11l320 0c6 0 11 5 11 11 0 6-5 11-11 11z"/>
<glyph glyph-name="emoji" unicode="&#87;" d="M256 138c-32 0-63 18-82 50-3 5-1 11 4 14 5 3 11 2 14-3 16-26 39-40 64-40 25 0 49 14 64 40 3 5 10 6 15 3 5-3 6-9 3-14-19-32-50-50-82-50z m0-74c-106 0-192 86-192 192 0 106 86 192 192 192 106 0 192-86 192-192 0-106-86-192-192-192z m0 363c-94 0-171-77-171-171 0-94 77-171 171-171 94 0 171 77 171 171 0 94-77 171-171 171z m-64-171c-23 0-43 19-43 43 0 23 20 42 43 42 23 0 43-19 43-42 0-24-20-43-43-43z m0 64c-12 0-21-10-21-21 0-12 9-22 21-22 12 0 21 10 21 22 0 11-9 21-21 21z m128-64c-23 0-43 19-43 43 0 23 20 42 43 42 23 0 43-19 43-42 0-24-20-43-43-43z m0 64c-12 0-21-10-21-21 0-12 9-22 21-22 12 0 21 10 21 22 0 11-9 21-21 21z"/>
<glyph glyph-name="eye" unicode="&#88;" d="M256 123c-105 0-187 122-190 127-3 4-3 8 0 12 3 5 85 127 190 127 105 0 187-122 190-127 3-4 3-8 0-12-3-5-85-127-190-127z m-168 133c17-24 87-112 168-112 81 0 151 88 168 112-17 24-87 112-168 112-81 0-151-88-168-112z m168-64c-35 0-64 29-64 64 0 35 29 64 64 64 35 0 64-29 64-64 0-35-29-64-64-64z m0 107c-23 0-43-20-43-43 0-23 20-43 43-43 23 0 43 20 43 43 0 23-20 43-43 43z"/>
<glyph glyph-name="eye-disable" unicode="&#89;" d="M107 96c-3 0-6 1-8 3-4 4-4 11 0 15l299 299c4 4 11 4 15 0 4-4 4-11 0-15l-299-299c-2-2-5-3-7-3z m149 27c-105 0-187 122-190 127-3 4-3 8 0 12 3 5 85 127 190 127 105 0 187-122 190-127 3-4 3-8 0-12-3-5-85-127-190-127z m-168 133c17-24 87-112 168-112 81 0 151 88 168 112-17 24-87 112-168 112-81 0-151-88-168-112z m168-64c-35 0-64 29-64 64 0 35 29 64 64 64 35 0 64-29 64-64 0-35-29-64-64-64z m0 107c-23 0-43-20-43-43 0-23 20-43 43-43 23 0 43 20 43 43 0 23-20 43-43 43z"/>
<glyph glyph-name="filter" unicode="&#90;" d="M437 427l-362 0c-6 0-11 4-11 10 0 6 5 11 11 11l362 0c6 0 11-5 11-11 0-6-5-10-11-10z m-149-374c-6 0-12 2-17 5l-64 42c-9 6-15 17-15 28l0 94c0 3-1 6-3 8l-96 125c-5 6-8 14-8 22l0 60c0 6 5 11 11 11 6 0 11-5 11-11l0-60c0-3 1-6 2-8l97-126c5-6 8-13 8-21l0-94c0-4 2-8 5-10l64-42c4-2 8-1 10 0 4 2 6 6 6 11l0 135c0 8 2 15 7 21l97 126c1 2 2 5 2 8l0 60c0 6 5 11 11 11 6 0 11-5 11-11l0-60c0-8-3-16-8-22l-96-125c-2-2-3-5-3-8l0-135c0-13-7-24-17-30-5-2-10-4-15-4z m21 160l-106 0c-6 0-11 5-11 11 0 6 5 11 11 11l106 0c6 0 11-5 11-11 0-6-5-11-11-11z m107 150l-320 0c-6 0-11 4-11 10 0 6 5 11 11 11l320 0c6 0 11-5 11-11 0-6-5-10-11-10z"/>
<glyph glyph-name="flag-1" unicode="&#48;" d="M96 64c-6 0-11 5-11 11l0 362c0 6 5 11 11 11 6 0 11-5 11-11l0-362c0-6-5-11-11-11z m149 213l-149 0c-6 0-11 5-11 11 0 6 5 11 11 11l139 0 0 106-139 0c-6 0-11 5-11 11 0 6 5 11 11 11l149 0c6 0 11-5 11-11l0-128c0-6-5-11-11-11z m171-42l-213 0c-6 0-11 4-11 10l0 43c0 6 5 11 11 11 6 0 10-5 10-11l0-32 177 0-46 46c-4 4-4 11 0 15l46 46-145 0c-6 0-10 4-10 10 0 6 4 11 10 11l171 0c4 0 8-3 10-7 2-4 0-8-3-11l-56-57 57-56c3-3 4-8 2-12-2-4-6-6-10-6z"/>
<glyph glyph-name="flag-2" unicode="&#49;" d="M96 64c-6 0-11 5-11 11l0 362c0 6 5 11 11 11 6 0 11-5 11-11l0-362c0-6-5-11-11-11z m100 140c-4 0-9 1-13 3l-90 39c-6 2-8 9-6 14 3 5 9 8 14 6l91-40c2-1 5-1 7 0l109 38c6 2 12 2 18 1l66-14c3-1 7 0 9 2 3 2 4 5 4 8l0 127c0 5-4 9-8 11l-76 16c-2 0-4 0-5 0l-109-38c-8-3-16-3-24 1l-90 39c-6 2-8 9-6 14 3 5 9 8 14 5l91-39c2-1 5-1 8 0l109 38c5 2 11 2 17 1l75-17c15-3 26-16 26-31l0-127c0-10-5-19-12-25-8-6-18-8-27-6l-67 14c-1 1-3 0-5 0l-109-38c-4-1-7-2-11-2z m-79-140l-42 0c-6 0-11 5-11 11 0 6 5 10 11 10l42 0c6 0 11-4 11-10 0-6-5-11-11-11z"/>
<glyph glyph-name="folder" unicode="&#50;" d="M437 235l-362 0c-6 0-11 4-11 10 0 6 5 11 11 11l362 0c6 0 11-5 11-11 0-6-5-10-11-10z m-21-171l-320 0c-18 0-32 14-32 32l0 299c0 17 14 32 32 32l77 0c8 0 16-4 22-10l52-51c2-2 4-3 7-3l162 0c18 0 32-15 32-32l0-235c0-18-14-32-32-32z m-320 341c-6 0-11-4-11-10l0-299c0-6 5-11 11-11l320 0c6 0 11 5 11 11l0 235c0 6-5 10-11 10l-162 0c-8 0-17 4-23 10l-51 51c-2 2-5 3-7 3z"/>
<glyph glyph-name="gear" unicode="&#51;" d="M256 213c-23 0-43 20-43 43 0 23 20 43 43 43 23 0 43-20 43-43 0-23-20-43-43-43z m0 64c-12 0-21-9-21-21 0-12 9-21 21-21 12 0 21 9 21 21 0 12-9 21-21 21z m13-213l-26 0c-16 0-30 13-30 29l0 30c0 4-3 6-6 8-3 1-7 1-10-2l-20-20c-11-11-31-11-42 0l-26 26c-6 5-9 13-9 21 0 8 3 15 9 21l20 20c3 3 3 7 2 10-2 3-4 6-8 6l-30 0c-16 0-29 14-29 30l0 26c0 16 13 30 29 30l30 0c4 0 6 3 8 6 1 3 1 7-2 10l-20 20c-6 6-9 13-9 21 0 8 3 16 9 21l26 26c11 11 30 11 42 0l20-20c3-3 7-3 10-2 3 2 6 4 6 8l0 30c0 16 14 29 30 29l26 0c16 0 30-13 30-29l0-30c0-4 3-6 6-8 3-1 7-1 10 2l20 20c11 12 31 12 42 0l26-26c6-5 9-13 9-21 0-8-3-15-9-21l-20-20c-3-3-3-7-2-10 2-3 4-6 8-6l29 0c17 0 30-14 30-30l0-26c0-16-13-29-30-29l-29 0c-4 0-6-3-8-6-1-4-1-8 2-10l20-21c6-6 9-13 9-21 0-8-3-15-9-21l-26-26c-11-11-31-11-42 0l-21 20c-2 3-6 3-9 2-3-2-6-4-6-8l0-29c0-17-14-30-30-30z m-66 89c4 0 8-1 12-3 12-5 20-15 20-27l0-30c0-4 3-8 8-8l26 0c4 0 8 4 8 8l0 30c0 12 8 22 19 27 12 5 25 3 34-6l20-20c3-3 9-3 12 0l26 26c3 3 3 8 0 11l-21 21c-8 9-11 22-6 33 5 12 16 20 28 20l29 0c5 0 8 3 8 8l0 26c0 4-3 8-8 8l-29 0c-12 0-23 8-28 19-5 12-2 25 6 34l21 20c3 3 3 9 0 12l-26 26c-3 3-8 3-11 0l-21-20c-9-9-22-11-33-6-12 4-20 15-20 27l0 30c0 4-3 8-8 8l-26 0c-5 0-8-4-8-8l0-30c0-12-8-22-20-27-11-5-24-3-33 6l-21 20c-3 3-8 3-11 0l-26-26c-3-3-3-8 0-11l20-21c9-9 11-22 6-33-4-12-15-20-27-20l-30 0c-4 0-8-3-8-8l0-26c0-5 4-8 8-8l30 0c12 0 22-8 27-20 5-11 3-24-6-33l-20-21c-3-3-3-8 0-11l26-26c3-3 8-3 11 0l21 20c6 6 13 9 21 9z"/>
<glyph glyph-name="heart" unicode="&#52;" d="M256 64c-3 0-6 1-8 3l-150 160c-45 48-45 126 0 174 22 24 52 36 83 36 28 0 54-10 75-28 21 18 48 28 75 28 32 0 61-12 83-36 46-48 46-126 0-174l-150-160c-2-2-5-3-8-3z m-75 352c-25 0-49-10-68-30-37-40-37-105 0-145l143-151 143 151c37 40 37 105 0 145-18 20-43 30-68 30-25 0-49-10-67-30-4-4-12-4-16 0-18 20-42 30-67 30z"/>
<glyph glyph-name="historical" unicode="&#53;" d="M437 427l-362 0c-6 0-11 4-11 10 0 6 5 11 11 11l362 0c6 0 11-5 11-11 0-6-5-10-11-10z m0-363l-362 0c-6 0-11 5-11 11 0 6 5 10 11 10l362 0c6 0 11-4 11-10 0-6-5-11-11-11z m-170 192l-22 0c-2 0-4 1-6 2l-61 41c-45 30-71 79-71 133l0 5c0 6 4 11 10 11 6 0 11-5 11-11l0-5c0-47 23-90 62-115l59-40 14 0 59 40c39 25 62 68 62 115l0 5c0 6 5 11 11 11 6 0 10-5 10-11l0-5c0-54-26-103-71-133l-61-41c-2-1-4-2-6-2z m128-192c-6 0-11 5-11 11l0 5c0 47-23 90-62 115l-59 40-14 0-59-40c-39-25-62-68-62-115l0-5c0-6-5-11-11-11-6 0-10 5-10 11l0 5c0 54 26 103 71 133l61 41c2 1 4 2 6 2l22 0c2 0 4-1 6-2l61-41c45-30 71-79 71-133l0-5c0-6-4-11-10-11z"/>
<glyph glyph-name="history" unicode="&#54;" d="M107 64c-24 0-43 19-43 43 0 23 19 42 43 42 23 0 42-19 42-42 0-24-19-43-42-43z m0 64c-12 0-22-10-22-21 0-12 10-22 22-22 11 0 21 10 21 22 0 11-10 21-21 21z m288 0l-278 0c-6 0-10 5-10 11 0 6 4 10 10 10l278 0c6 0 10-4 10-10 0-6-4-11-10-11z m10-64l-10 0c-6 0-11 5-11 11 0 6 5 10 11 10l10 0c12 0 22 10 22 22 0 11-10 21-22 21l-10 0c-6 0-11 5-11 11 0 6 5 10 11 10l10 0c24 0 43-19 43-42 0-24-19-43-43-43z m-10 0l-278 0c-6 0-10 5-10 11 0 6 4 10 10 10l278 0c6 0 10-4 10-10 0-6-4-11-10-11z m-320 43c-6 0-11 4-11 10l0 299c0 18 14 32 32 32l277 0c18 0 32-14 32-32l0-277c0-6-4-11-10-11-6 0-11 5-11 11l0 277c0 6-5 11-11 11l-277 0c-6 0-11-5-11-11l0-299c0-6-4-10-10-10z m256 234l-192 0c-6 0-11 5-11 11 0 6 5 11 11 11l192 0c6 0 10-5 10-11 0-6-4-11-10-11z m1-65l-192 0c-6 0-10 5-10 11 0 6 4 11 10 11l192 0c6 0 11-5 11-11 0-6-5-11-11-11z m-1-63l-192 0c-6 0-11 5-11 11 0 6 5 11 11 11l192 0c6 0 10-5 10-11 0-6-4-11-10-11z"/>
<glyph glyph-name="home-2" unicode="&#55;" d="M309 74c-6 0-10 5-10 11l0 128-86 0 0-128c0-6-4-11-10-11-6 0-11 5-11 11l0 139c0 6 5 10 11 10l106 0c6 0 11-4 11-10l0-139c0-6-5-11-11-11z m11 203l-128 0c-6 0-11 5-11 11 0 6 5 11 11 11l128 0c6 0 11-5 11-11 0-6-5-11-11-11z m117-213l-362 0c-6 0-11 5-11 11l0 241c0 4 2 7 4 9l182 132c4 2 9 2 13 0l181-132c2-2 4-5 4-9l0-241c0-6-5-11-11-11z m-352 21l342 0 0 226-171 124-171-124z"/>
<glyph glyph-name="home-3" unicode="&#56;" d="M437 64l-362 0c-6 0-11 4-11 10l0 242c0 3 2 7 4 8l182 132c4 3 9 3 13 0l181-132c2-1 4-5 4-8l0-242c0-6-5-10-11-10z m-352 21l342 0 0 226-171 124-171-124z m246-10c-6 0-11 4-11 10l0 122-64 37-64-37 0-122c0-6-5-10-11-10-6 0-10 4-10 10l0 128c0 4 2 7 5 9l75 43c4 2 8 2 11 0l74-43c3-2 5-5 5-9l0-128c0-6-4-10-10-10z"/>
<glyph glyph-name="home-4" unicode="&#57;" d="M437 64l-362 0c-6 0-11 5-11 11l0 234c0 6 5 11 11 11 6 0 10-5 10-11l0-224 342 0 0 224c0 6 4 11 10 11 6 0 11-5 11-11l0-234c0-6-5-11-11-11z m-394 224c-4 0-7 1-9 4-3 5-2 12 2 15l214 150c4 2 9 2 12 0l213-150c5-3 6-10 3-15-4-4-10-5-15-2l-207 145-207-145c-2-1-4-2-6-2z m288-213c-6 0-11 4-11 10l0 122-64 37-64-37 0-122c0-6-5-10-11-10-6 0-10 4-10 10l0 128c0 4 2 7 5 9l75 43c4 2 8 2 11 0l74-43c3-2 5-5 5-9l0-128c0-6-4-10-10-10z"/>
<glyph glyph-name="home-5" unicode="&#33;" d="M437 64l-362 0c-6 0-11 5-11 11l0 234c0 6 5 11 11 11 6 0 10-5 10-11l0-224 342 0 0 224c0 6 4 11 10 11 6 0 11-5 11-11l0-234c0-6-5-11-11-11z m32 224c-2 0-4 1-6 2l-207 145-207-145c-5-3-12-2-15 2-3 5-2 12 2 15l214 150c3 2 8 2 12 0l213-150c5-3 6-10 3-15-2-3-5-4-9-4z m-138-224c-6 0-11 5-11 11l0 160-128 0 0-160c0-6-5-11-11-11-6 0-10 5-10 11l0 170c0 6 4 11 10 11l150 0c6 0 10-5 10-11l0-170c0-6-4-11-10-11z"/>
<glyph glyph-name="image" unicode="&#34;" d="M416 64l-320 0c-18 0-32 14-32 32l0 320c0 18 14 32 32 32l320 0c18 0 32-14 32-32l0-320c0-18-14-32-32-32z m-320 363c-6 0-11-5-11-11l0-320c0-6 5-11 11-11l320 0c6 0 11 5 11 11l0 320c0 6-5 11-11 11z m-21-288c-4 0-7 1-9 4-3 5-2 11 2 15l78 59c11 8 27 8 39 0l42-32c4-3 9-3 13 0l65 49c11 8 27 8 38 0l101-76c4-4 5-10 2-15-4-5-11-6-15-2l-101 76c-4 2-9 2-13 0l-65-49c-11-9-27-9-38 0l-42 31c-4 3-9 3-13 0l-78-58c-2-2-4-2-6-2z m138 117c-35 0-64 29-64 64 0 35 29 64 64 64 36 0 64-29 64-64 0-35-28-64-64-64z m0 107c-23 0-42-20-42-43 0-23 19-43 42-43 24 0 43 20 43 43 0 23-19 43-43 43z"/>
<glyph glyph-name="ingoing-call" unicode="&#35;" d="M338 53c-14 0-28 2-43 5-52 12-105 43-150 87-93 94-120 220-58 281 18 18 39 29 64 33 5 0 10-2 12-7l44-103c2-5 0-11-5-14l-41-20c-2-1-4-4-5-6-1-3 0-6 1-8 14-26 35-54 63-81 26-27 53-48 80-62 3-2 6-2 9-1 2 1 5 2 6 5l20 40c2 4 7 7 11 6l103-15c6 0 9-5 10-10 2-40-10-73-33-96-22-22-52-34-88-34z m-191 383c-18-4-33-12-45-25-53-53-27-165 58-251 42-41 92-70 140-81 47-10 86-2 111 23 17 17 26 41 26 71l-86 13-17-34c-4-8-11-13-19-16-8-2-17-2-25 3-29 15-58 38-86 65-29 29-51 58-66 87-4 7-5 16-2 24 2 8 8 15 16 19l31 16z m10-112z m280-47l-149 0c-6 0-11 5-11 11l0 149c0 6 5 11 11 11 6 0 11-5 11-11l0-138 138 0c6 0 11-5 11-11 0-6-5-11-11-11z m-149 0c-3 0-6 1-7 4-5 4-5 10 0 15l149 149c4 4 11 4 15 0 4-4 4-11 0-15l-149-149c-2-3-5-4-8-4z"/>
<glyph glyph-name="key" unicode="&#36;" d="M171 256c-47 0-86 38-86 85 0 47 39 86 86 86 47 0 85-39 85-86 0-47-38-85-85-85z m0 149c-36 0-64-28-64-64 0-35 28-64 64-64 35 0 64 29 64 64 0 36-29 64-64 64z m170-245c-2 0-5 1-7 3-4 4-4 11 0 15l32 32c4 5 11 5 15 0 4-4 4-11 0-15l-32-32c-2-2-5-3-8-3z m45-40c-2 0-5 1-7 3-4 4-4 11 0 15l53 53c4 5 11 5 15 0 5-4 5-11 0-15l-53-53c-2-2-5-3-8-3z m30-35c-3 0-6 1-7 4l-192 192c-5 4-5 10 0 15 4 4 10 4 15 0l192-192c4-5 4-11 0-15-2-3-5-4-8-4z"/>
<glyph glyph-name="layout" unicode="&#37;" d="M203 320l-107 0c-18 0-32 14-32 32l0 64c0 18 14 32 32 32l107 0c17 0 32-14 32-32l0-64c0-18-15-32-32-32z m-107 107c-6 0-11-5-11-11l0-64c0-6 5-11 11-11l107 0c6 0 10 5 10 11l0 64c0 6-4 11-10 11z m320-363l-107 0c-17 0-32 14-32 32l0 64c0 18 15 32 32 32l107 0c18 0 32-14 32-32l0-64c0-18-14-32-32-32z m-107 107c-6 0-10-5-10-11l0-64c0-6 4-11 10-11l107 0c6 0 11 5 11 11l0 64c0 6-5 11-11 11z m-106-107l-107 0c-18 0-32 14-32 32l0 171c0 17 14 32 32 32l107 0c17 0 32-15 32-32l0-171c0-18-15-32-32-32z m-107 213c-6 0-11-4-11-10l0-171c0-6 5-11 11-11l107 0c6 0 10 5 10 11l0 171c0 6-4 10-10 10z m320-64l-107 0c-17 0-32 15-32 32l0 171c0 18 15 32 32 32l107 0c18 0 32-14 32-32l0-171c0-17-14-32-32-32z m-107 214c-6 0-10-5-10-11l0-171c0-6 4-10 10-10l107 0c6 0 11 4 11 10l0 171c0 6-5 11-11 11z"/>
<glyph glyph-name="light-bulb" unicode="&#38;" d="M309 149l-106 0c-6 0-11 5-11 11l0 21c0 3-1 5-4 7-36 25-55 68-48 111 5 34 28 64 59 81 32 18 71 19 105 4 38-17 64-51 69-91 4-41-15-81-49-105-3-2-4-4-4-7l0-21c0-6-5-11-11-11z m-96 22l86 0 0 10c0 10 5 19 13 24 28 20 43 52 39 86-3 32-25 60-56 74-28 12-59 11-86-3-26-14-44-39-48-67-5-35 9-69 39-90 8-5 13-14 13-24z m96-107l-106 0c-6 0-11 5-11 11l0 85c0 6 5 11 11 11l106 0c6 0 11-5 11-11l0-85c0-6-5-11-11-11z m-96 21l86 0 0 64-86 0z m-138 171c-6 0-11 5-11 11 0 6 5 10 11 10l0 0c6 0 11-4 11-10 0-6-5-11-11-11z m43-128c-6 0-11 5-11 11 0 6 4 10 10 10l1 0c6 0 10-4 10-10 0-6-4-11-10-11z m320 128c-6 0-11 5-11 11 0 6 5 10 11 10l0 0c6 0 10-4 10-10 0-6-4-11-10-11z m-43-128c-3 0-6 1-8 3-1 1-2 2-2 4-1 1-1 2-1 4 0 2 1 5 3 7 4 4 11 4 15 0 2-2 3-5 3-7 0-2 0-3-1-4 0-2-1-3-2-4-2-2-5-3-7-3z m0 235c-6 0-11 4-11 10 0 6 5 11 11 11l0 0c6 0 11-5 11-11 0-6-5-10-11-10z m-277 0c-6 0-11 4-11 10 0 6 4 11 10 11l1 0c6 0 10-5 10-11 0-6-4-10-10-10z m85 64c-2 0-3 0-4 1-2 0-3 1-4 2-2 2-3 5-3 7 0 3 1 6 3 8 1 1 2 2 4 2 3 2 8 1 11-2 2-2 3-5 3-8 0-2-1-5-3-7-2-2-5-3-7-3z m106 0c-2 0-5 1-7 3-2 2-3 5-3 7 0 2 0 3 1 4 0 2 1 3 2 4 4 4 11 4 15 0 1-1 2-2 2-4 1-1 1-2 1-4 0-2-1-5-3-7-2-2-5-3-8-3z"/>
<glyph glyph-name="link" unicode="&#39;" d="M383 171l-74 0c-6 0-10 4-10 10 0 6 4 11 10 11l74 0c30 0 54 24 54 53 0 30-24 54-54 54l-74 0c-6 0-10 4-10 10 0 6 4 11 10 11l74 0c42 0 76-33 76-75 0-41-34-74-76-74z m-52 64l-150 0c-6 0-10 4-10 10 0 6 4 11 10 11l150 0c6 0 10-5 10-11 0-6-4-10-10-10z m-128-64l-73 0c-42 0-77 33-77 74 0 42 35 75 77 75l73 0c6 0 10-5 10-11 0-6-4-10-10-10l-73 0c-30 0-55-24-55-54 0-29 25-53 55-53l73 0c6 0 10-5 10-11 0-6-4-10-10-10z"/>
<glyph glyph-name="lock" unicode="&#40;" d="M373 309c-6 0-10 5-10 11 0 59-48 107-107 107-59 0-107-48-107-107 0-6-4-11-10-11-6 0-11 5-11 11 0 71 57 128 128 128 71 0 128-57 128-128 0-6-5-11-11-11z m22-245l-278 0c-17 0-32 14-32 32l0 192c0 18 15 32 32 32l278 0c17 0 32-14 32-32l0-192c0-18-15-32-32-32z m-278 235c-6 0-10-5-10-11l0-192c0-6 4-11 10-11l278 0c6 0 10 5 10 11l0 192c0 6-4 11-10 11z m139-150c-23 0-43 20-43 43 0 23 20 43 43 43 23 0 43-20 43-43 0-23-20-43-43-43z m0 64c-12 0-21-9-21-21 0-12 9-21 21-21 12 0 21 9 21 21 0 12-9 21-21 21z"/>
<glyph glyph-name="mail" unicode="&#41;" d="M416 85l-320 0c-18 0-32 15-32 32l0 256c0 18 14 32 32 32l320 0c18 0 32-14 32-32l0-256c0-17-14-32-32-32z m-320 299c-6 0-11-5-11-11l0-256c0-6 5-10 11-10l320 0c6 0 11 4 11 10l0 256c0 6-5 11-11 11z m160-160c-3 0-5 1-7 3l-176 149c-4 4-5 10-1 15 4 4 10 5 15 1l169-143 169 143c5 4 11 4 15-1 4-4 3-11-1-15l-176-149c-2-2-4-3-7-3z"/>
<glyph glyph-name="map" unicode="&#42;" d="M316 96c-3 0-6 0-9 1l-108 35c-2 0-4 0-6 0l-89-28c-9-3-20-2-28 4-8 6-12 14-12 23l0 228c0 12 8 24 21 27l101 32c6 2 13 2 19 0l108-34c2-1 4-1 6 0l89 28c10 3 20 1 28-5 8-5 12-13 12-23l0-227c0-12-8-24-21-28l-101-31c-3-2-6-2-10-2z m-120 57c3 0 6 0 9-1l108-34c2-1 4-1 6 0l101 32c4 1 6 4 6 7l0 227c0 4-1 6-3 6-2 2-6 3-8 2l-89-28c-6-2-13-2-19 0l-108 34c-2 1-4 1-6 0l-102-32c-3-1-6-4-6-7l0-228c0-3 2-5 4-6 2-1 5-2 8-1l89 28c3 1 6 1 10 1z m7-14c-6 0-11 4-11 10l0 246c0 6 5 10 11 10 6 0 10-4 10-10l0-246c0-6-4-10-10-10z m106-32c-6 0-10 4-10 10l0 256c0 6 4 11 10 11 6 0 11-5 11-11l0-256c0-6-5-10-11-10z"/>
<glyph glyph-name="menu-1" unicode="&#43;" d="M459 384l-384 0c-6 0-11 5-11 11 0 6 5 10 11 10l384 0c6 0 10-4 10-10 0-6-4-11-10-11z m0-149l-384 0c-6 0-11 4-11 10 0 6 5 11 11 11l384 0c6 0 10-5 10-11 0-6-4-10-10-10z m0-150l-384 0c-6 0-11 5-11 11 0 6 5 11 11 11l384 0c6 0 10-5 10-11 0-6-4-11-10-11z"/>
<glyph glyph-name="menu-2" unicode="&#44;" d="M448 384l-384 0c-6 0-11 5-11 11 0 6 5 10 11 10l384 0c6 0 11-4 11-10 0-6-5-11-11-11z m-192-149l-192 0c-6 0-11 4-11 10 0 6 5 11 11 11l192 0c6 0 11-5 11-11 0-6-5-10-11-10z m192-150l-384 0c-6 0-11 5-11 11 0 6 5 11 11 11l384 0c6 0 11-5 11-11 0-6-5-11-11-11z"/>
<glyph glyph-name="menu-3" unicode="&#45;" d="M149 384l-85 0c-6 0-11 5-11 11 0 6 5 10 11 10l85 0c6 0 11-4 11-10 0-6-5-11-11-11z m107-149l-192 0c-6 0-11 4-11 10 0 6 5 11 11 11l192 0c6 0 11-5 11-11 0-6-5-10-11-10z m192-150l-384 0c-6 0-11 5-11 11 0 6 5 11 11 11l384 0c6 0 11-5 11-11 0-6-5-11-11-11z"/>
<glyph glyph-name="menu-4" unicode="&#46;" d="M256 384l-192 0c-6 0-11 5-11 11 0 6 5 10 11 10l192 0c6 0 11-4 11-10 0-6-5-11-11-11z m192-149l-384 0c-6 0-10 4-10 10 0 6 4 11 10 11l384 0c6 0 11-5 11-11 0-6-5-10-11-10z m-192-150l-192 0c-6 0-11 5-11 11 0 6 5 11 11 11l192 0c6 0 11-5 11-11 0-6-5-11-11-11z"/>
<glyph glyph-name="menu-5" unicode="&#47;" d="M107 384l-43 0c-6 0-11 5-11 11 0 6 5 10 11 10l43 0c6 0 10-4 10-10 0-6-4-11-10-11z m341 0l-299 0c-6 0-10 5-10 11 0 6 4 10 10 10l299 0c6 0 11-4 11-10 0-6-5-11-11-11z m-341-149l-43 0c-6 0-11 4-11 10 0 6 5 11 11 11l43 0c6 0 10-5 10-11 0-6-4-10-10-10z m341 0l-299 0c-6 0-10 4-10 10 0 6 4 11 10 11l299 0c6 0 11-5 11-11 0-6-5-10-11-10z m-341-150l-43 0c-6 0-11 5-11 11 0 6 5 11 11 11l43 0c6 0 10-5 10-11 0-6-4-11-10-11z m341 0l-299 0c-6 0-10 5-10 11 0 6 4 11 10 11l299 0c6 0 11-5 11-11 0-6-5-11-11-11z"/>
<glyph glyph-name="menu-6" unicode="&#58;" d="M203 299l-128 0c-6 0-11 4-11 10l0 128c0 6 5 11 11 11l128 0c6 0 10-5 10-11l0-128c0-6-4-10-10-10z m-118 21l107 0 0 107-107 0z m118-256l-128 0c-6 0-11 5-11 11l0 128c0 6 5 10 11 10l128 0c6 0 10-4 10-10l0-128c0-6-4-11-10-11z m-118 21l107 0 0 107-107 0z m288-21c-41 0-74 33-74 75 0 41 33 74 74 74 42 0 75-33 75-74 0-42-33-75-75-75z m0 128c-29 0-53-24-53-53 0-30 24-54 53-54 30 0 54 24 54 54 0 29-24 53-54 53z m64 107l-128 0c-6 0-10 4-10 10l0 128c0 6 4 11 10 11l128 0c6 0 11-5 11-11l0-128c0-6-5-10-11-10z m-117 21l107 0 0 107-107 0z"/>
<glyph glyph-name="menu-7" unicode="&#59;" d="M203 299l-128 0c-6 0-11 4-11 10l0 128c0 6 5 11 11 11l128 0c6 0 10-5 10-11l0-128c0-6-4-10-10-10z m-118 21l107 0 0 107-107 0z m118-256l-128 0c-6 0-11 5-11 11l0 128c0 6 5 10 11 10l128 0c6 0 10-4 10-10l0-128c0-6-4-11-10-11z m-118 21l107 0 0 107-107 0z m352-21l-128 0c-6 0-10 5-10 11l0 128c0 6 4 10 10 10l128 0c6 0 11-4 11-10l0-128c0-6-5-11-11-11z m-117 21l107 0 0 107-107 0z m117 214l-128 0c-6 0-10 4-10 10l0 128c0 6 4 11 10 11l128 0c6 0 11-5 11-11l0-128c0-6-5-10-11-10z m-117 21l107 0 0 107-107 0z"/>
<glyph glyph-name="menu-circle" unicode="&#60;" d="M256 53c-112 0-203 91-203 203 0 112 91 203 203 203 112 0 203-91 203-203 0-112-91-203-203-203z m0 384c-100 0-181-81-181-181 0-100 81-181 181-181 100 0 181 81 181 181 0 100-81 181-181 181z m107-117l-214 0c-6 0-10 4-10 10 0 6 4 11 10 11l214 0c6 0 10-5 10-11 0-6-5-10-10-10z m0-85l-214 0c-6 0-10 4-10 10 0 6 4 11 10 11l214 0c6 0 10-5 10-11 0-6-4-10-10-10z m0-86l-214 0c-6 0-10 5-10 11 0 6 4 11 10 11l214 0c6 0 10-5 10-11 0-6-4-11-10-11z"/>
<glyph glyph-name="minus" unicode="&#61;" d="M427 245l-363 0c-6 0-11 5-11 11 0 6 5 11 11 11l363 0c6 0 10-5 10-11 0-6-4-11-10-11z"/>
<glyph glyph-name="money-dollar" unicode="&#62;" d="M256 53c-112 0-203 91-203 203 0 112 91 203 203 203 112 0 203-91 203-203 0-112-91-203-203-203z m0 384c-100 0-181-81-181-181 0-100 81-181 181-181 100 0 181 81 181 181 0 100-81 181-181 181z m27-266l-80 0c-6 0-11 4-11 10 0 6 5 11 11 11l80 0c8 0 15 6 15 14l0 25c0 8-7 15-15 15l-53 0c-21 0-38 16-38 35l0 25c0 19 17 35 38 35l79 0c6 0 11-4 11-10 0-6-5-11-11-11l-79 0c-9 0-16-6-16-14l0-25c0-8 7-15 16-15l53 0c20 0 37-16 37-35l0-25c0-19-17-35-37-35z m-27 160c-6 0-11 4-11 10l0 43c0 6 5 11 11 11 6 0 11-5 11-11l0-43c0-6-5-10-11-10z m0-214c-6 0-11 5-11 11l0 43c0 6 5 10 11 10 6 0 11-4 11-10l0-43c0-6-5-11-11-11z"/>
<glyph glyph-name="more-horizontal" unicode="&#63;" d="M256 363c-23 0-43 19-43 42 0 24 20 43 43 43 23 0 43-19 43-43 0-23-20-42-43-42z m0 64c-12 0-21-10-21-22 0-11 9-21 21-21 12 0 21 10 21 21 0 12-9 22-21 22z m0-214c-23 0-43 20-43 43 0 23 20 43 43 43 23 0 43-20 43-43 0-23-20-43-43-43z m0 64c-12 0-21-9-21-21 0-12 9-21 21-21 12 0 21 9 21 21 0 12-9 21-21 21z m0-213c-23 0-43 19-43 43 0 23 20 42 43 42 23 0 43-19 43-42 0-24-20-43-43-43z m0 64c-12 0-21-10-21-21 0-12 9-22 21-22 12 0 21 10 21 22 0 11-9 21-21 21z"/>
<glyph glyph-name="multiply" unicode="&#64;" d="M384 117c-3 0-6 1-7 4l-256 256c-5 4-5 10 0 15 4 4 10 4 15 0l256-256c4-5 4-11 0-15-2-3-5-4-8-4z m-256 0c-3 0-6 1-7 4-5 4-5 10 0 15l256 256c4 4 10 4 15 0 4-5 4-11 0-15l-256-256c-2-3-5-4-8-4z"/>
<glyph glyph-name="no-signal" unicode="&#91;" d="M256 107c-23 0-43 19-43 42 0 24 20 43 43 43 23 0 43-19 43-43 0-23-20-42-43-42z m0 64c-12 0-21-10-21-22 0-11 9-21 21-21 12 0 21 10 21 21 0 12-9 22-21 22z m83 16c-3 0-5 1-7 3-20 22-47 34-76 34-29 0-56-12-76-34-4-4-10-4-15-1-4 4-4 11-1 16 24 25 57 40 92 40 35 0 68-15 92-41 3-4 3-11-1-15-2-1-5-2-8-2z m50 56c-2 0-5 1-7 3-34 34-78 53-126 53-48 0-92-19-126-53-4-4-11-4-15 0-4 4-4 11 0 15 38 38 87 59 141 59 54 0 103-21 141-59 4-5 4-11 0-15-2-2-5-3-8-3z m54 52c-3 0-6 1-8 3-48 49-111 75-179 75-68 0-131-26-179-75-4-4-11-4-15 0-4 4-4 11 0 15 51 53 120 82 194 82 74 0 143-29 194-82 4-4 4-11 0-15-2-2-5-3-7-3z m-326-188c-2 0-5 1-7 3-4 4-4 11 0 15l277 277c4 5 11 5 15 0 5-4 5-11 0-15l-277-277c-2-2-5-3-8-3z"/>
<glyph glyph-name="notebook" unicode="&#93;" d="M352 149l-107 0c-6 0-10 5-10 11 0 6 4 11 10 11l107 0c6 0 11-5 11-11 0-6-5-11-11-11z m-192 192l-64 0c-18 0-32 15-32 32 0 18 14 32 32 32l64 0c18 0 32-14 32-32 0-17-14-32-32-32z m-64 43c-6 0-11-5-11-11 0-6 5-10 11-10l64 0c6 0 11 4 11 10 0 6-5 11-11 11z m64-277l-64 0c-18 0-32 14-32 32 0 17 14 32 32 32l64 0c18 0 32-15 32-32 0-18-14-32-32-32z m-64 42c-6 0-11-4-11-10 0-6 5-11 11-11l64 0c6 0 11 5 11 11 0 6-5 10-11 10z m64 75l-64 0c-18 0-32 14-32 32 0 18 14 32 32 32l64 0c18 0 32-14 32-32 0-18-14-32-32-32z m-64 43c-6 0-11-5-11-11 0-6 5-11 11-11l64 0c6 0 11 5 11 11 0 6-5 11-11 11z m256-11l-107 0c-6 0-10 5-10 11 0 6 4 10 10 10l107 0c6 0 11-4 11-10 0-6-5-11-11-11z m0 107l-107 0c-6 0-10 4-10 10 0 6 4 11 10 11l107 0c6 0 11-5 11-11 0-6-5-10-11-10z m85-299l-298 0c-6 0-11 5-11 11l0 42c0 6 5 11 11 11 6 0 10-5 10-11l0-32 278 0 0 342-278 0 0-32c0-6-4-11-10-11-6 0-11 5-11 11l0 42c0 6 5 11 11 11l298 0c6 0 11-5 11-11l0-362c0-6-5-11-11-11z m-298 85c-6 0-11 5-11 11l0 64c0 6 5 11 11 11 6 0 10-5 10-11l0-64c0-6-4-11-10-11z m0 128c-6 0-11 5-11 11l0 64c0 6 5 11 11 11 6 0 10-5 10-11l0-64c0-6-4-11-10-11z"/>
<glyph glyph-name="notification-bell" unicode="&#94;" d="M373 107l-234 0c-6 0-11 4-11 10l0 165c0 74 57 134 128 134 71 0 128-60 128-134l0-165c0-6-5-10-11-10z m-224 21l214 0 0 154c0 62-48 113-107 113-59 0-107-51-107-113z m246-21l-278 0c-6 0-10 4-10 10 0 6 4 11 10 11l278 0c6 0 10-5 10-11 0-6-4-10-10-10z m-139-43c-23 0-43 19-43 43 0 6 5 10 11 10 6 0 11-4 11-10 0-12 9-22 21-22 12 0 21 10 21 22 0 6 5 10 11 10 6 0 11-4 11-10 0-24-20-43-43-43z m0 341c-12 0-21 10-21 22 0 11 9 21 21 21 12 0 21-10 21-21 0-12-9-22-21-22z m0 22l11 0z"/>
<glyph glyph-name="open-folder" unicode="&#95;" d="M139 64c-2 0-3 0-4 1-6 2-8 8-6 13l59 157c4 13 16 21 29 21l220 0c6 0 11-5 11-11 0-6-5-10-11-10l-220 0c-4 0-8-3-10-7l-59-157c-1-4-5-7-9-7z m277 0l-320 0c-18 0-32 14-32 32l0 299c0 17 14 32 32 32l77 0c8 0 16-4 22-10l52-51c2-2 4-3 7-3l162 0c18 0 32-15 32-32l0-235c0-18-14-32-32-32z m-320 341c-6 0-11-4-11-10l0-299c0-6 5-11 11-11l320 0c6 0 11 5 11 11l0 235c0 6-5 10-11 10l-162 0c-8 0-17 4-23 10l-51 51c-2 2-5 3-7 3z"/>
<glyph glyph-name="outgoing-call" unicode="&#96;" d="M338 53c-14 0-28 2-43 5-52 12-105 43-150 87-93 94-120 220-58 281 18 18 39 29 64 33 5 0 10-2 12-7l44-103c2-5 0-11-5-14l-41-20c-2-1-4-4-5-6-1-3 0-6 1-8 14-26 35-54 63-81 26-27 53-48 80-62 3-2 6-2 9-1 2 1 5 2 6 5l20 40c2 4 7 7 11 6l103-15c6 0 9-5 10-10 2-40-10-73-33-96-22-22-52-34-88-34z m-191 383c-18-4-33-12-45-25-53-53-27-165 58-251 42-41 92-70 140-81 47-10 86-2 111 23 17 17 26 41 26 71l-86 13-17-34c-4-8-11-13-19-16-8-2-17-2-25 3-29 15-58 38-86 65-29 29-51 58-66 87-4 7-5 16-2 24 2 8 8 15 16 19l31 16z m10-112z m280-47c-6 0-10 5-10 11l0 139-139 0c-6 0-11 4-11 10 0 6 5 11 11 11l149 0c6 0 11-5 11-11l0-149c0-6-5-11-11-11z m-149 0c-3 0-6 1-7 4-5 4-5 10 0 15l149 149c4 4 11 4 15 0 4-4 4-11 0-15l-149-149c-2-3-5-4-8-4z"/>
<glyph glyph-name="pencil-1" unicode="&#123;" d="M363 245c-3 0-6 1-8 4l-106 106c-5 4-5 11 0 15 4 5 10 5 15 0l106-106c5-5 5-11 0-15-2-3-5-4-7-4z m-170-181l-96 0c-17 0-32 14-32 32l-1 86c0 8 3 17 9 23l231 230c12 12 33 12 45 0l88-87c12-12 12-33 0-45l-220-229c-6-6-15-10-24-10z m134 359c-3 0-6-1-8-3l-230-231c-2-1-4-4-4-7l1-86c0-6 5-11 11-11l96 0c3 0 6 2 8 4l221 229c4 4 4 11 0 15l-88 87c-2 2-4 3-7 3z m38-178c-3 0-5 1-7 4l-107 106c-4 4-4 11 0 15 4 5 11 5 15 0l107-106c4-5 4-11 0-15-2-3-5-4-8-4z"/>
<glyph glyph-name="pencil-2" unicode="&#124;" d="M363 245c-3 0-6 1-8 4l-106 106c-5 4-5 11 0 15 4 5 10 5 15 0l106-106c5-5 5-11 0-15-2-3-5-4-7-4z m74-181l-234 0c-6 0-11 5-11 11 0 6 5 10 11 10l234 0c6 0 11-4 11-10 0-6-5-11-11-11z m-244 0l-96 0c-17 0-32 14-32 32l-1 86c0 8 3 17 9 23l231 230c12 12 33 12 45 0l88-87c12-12 12-33 0-45l-220-229c-6-6-15-10-24-10z m134 359c-3 0-6-1-8-3l-230-231c-2-1-4-4-4-7l1-86c0-6 5-11 11-11l96 0c3 0 6 2 8 4l221 229c4 4 4 11 0 15l-88 87c-2 2-4 3-7 3z m38-178c-3 0-5 1-7 4l-107 106c-4 4-4 11 0 15 4 5 11 5 15 0l107-106c4-5 4-11 0-15-2-3-5-4-8-4z"/>
<glyph glyph-name="percentage" unicode="&#125;" d="M75 64c-3 0-6 1-8 3-4 4-4 11 0 15l363 363c4 4 11 4 15 0 4-4 4-11 0-15l-363-363c-2-2-5-3-7-3z m53 256c-35 0-64 29-64 64 0 35 29 64 64 64 35 0 64-29 64-64 0-35-29-64-64-64z m0 107c-23 0-43-20-43-43 0-23 20-43 43-43 23 0 43 20 43 43 0 23-20 43-43 43z m256-363c-35 0-64 29-64 64 0 35 29 64 64 64 35 0 64-29 64-64 0-35-29-64-64-64z m0 107c-23 0-43-20-43-43 0-23 20-43 43-43 23 0 43 20 43 43 0 23-20 43-43 43z"/>
<glyph glyph-name="phone" unicode="&#126;" d="M338 53c-14 0-28 2-43 5-52 12-105 43-150 87-93 94-120 220-58 281 18 18 39 29 64 33 5 0 10-2 12-7l44-103c2-5 0-11-5-14l-41-20c-2-1-4-4-5-6-1-3 0-6 1-8 14-26 35-54 63-81 26-27 53-48 80-62 3-2 6-2 9-1 2 1 5 2 6 5l20 40c2 4 7 7 11 6l103-15c6 0 9-5 10-10 2-40-10-73-33-96-22-22-52-34-88-34z m-191 383c-18-4-33-12-45-25-53-53-27-165 58-251 42-41 92-70 140-81 47-11 86-2 111 23 17 17 26 41 26 71l-86 13-17-34c-4-8-11-13-19-16-8-2-17-2-25 3-29 15-58 38-86 65-29 29-51 58-66 87-4 7-5 16-2 24 2 8 8 15 16 19l31 16z m10-112z"/>
<glyph glyph-name="phone-call" unicode="&#92;" d="M338 53c-14 0-28 2-43 5-52 12-105 43-150 87-93 94-120 220-58 281 18 18 39 29 64 33 5 0 10-2 12-7l44-103c2-5 0-11-5-14l-41-20c-2-1-4-4-5-6-1-3 0-6 1-8 14-26 35-54 63-81 26-27 53-48 80-62 3-2 6-2 9-1 2 1 5 2 6 5l20 40c2 4 7 7 11 6l103-15c6 0 9-5 10-10 2-40-10-73-33-96-22-22-52-34-88-34z m-191 383c-18-4-33-12-45-25-53-53-27-165 58-251 42-41 92-70 140-81 47-10 86-2 111 23 17 17 26 41 26 71l-86 13-17-34c-4-8-11-13-19-16-8-2-17-2-25 3-29 15-58 38-86 65-29 29-51 58-66 87-4 7-5 16-2 24 2 8 8 15 16 19l31 16z m10-112z m270-79c-6 0-11 5-11 11 0 88-72 160-160 160-6 0-11 5-11 11 0 6 5 10 11 10 100 0 181-81 181-181 0-6-4-11-10-11z m-76 0c-6 0-11 5-11 11 0 46-38 84-84 84-6 0-11 5-11 11 0 6 5 10 11 10 58 0 105-47 105-105 0-6-4-11-10-11z"/>
<glyph glyph-name="phone-disable" unicode="&#57344;" d="M85 75c-2 0-5 1-7 3-4 4-4 11 0 15l299 299c4 4 10 4 15 0 4-5 4-11 0-15l-299-299c-2-2-5-3-8-3z m253-22c-14 0-28 2-43 5-52 12-105 43-150 87-93 94-120 220-58 281 18 18 39 29 64 33 5 0 10-2 12-7l44-103c2-5 0-11-5-14l-41-20c-2-1-4-4-5-6-1-3 0-6 1-8 14-26 35-54 63-81 26-27 53-48 80-62 3-2 6-2 9-1 2 1 5 2 6 5l20 40c2 4 7 7 11 6l103-15c6 0 9-5 10-10 2-40-10-73-33-96-22-22-52-34-88-34z m-191 383c-18-4-33-12-45-25-53-53-27-165 58-251 42-41 92-70 140-81 47-11 86-2 111 23 17 17 26 41 26 71l-86 13-17-34c-4-8-11-13-19-16-8-2-17-2-25 3-29 15-58 38-86 65-29 29-51 58-66 87-4 7-5 16-2 24 2 8 8 15 16 19l31 16z m10-112z"/>
<glyph glyph-name="pin-map" unicode="&#57345;" d="M256 64c-10 0-19 6-24 14l-68 121c-4 6-7 13-11 20-23 50-47 124 10 187 24 27 57 42 93 42 36 0 69-15 93-42 57-63 33-138 9-189-3-6-6-11-9-17l-69-122c-5-8-14-14-24-14z m0 363c-29 0-57-13-78-36-48-53-26-119-5-163 3-7 6-13 9-19l68-120c3-5 9-5 11 0l69 122c3 5 6 10 8 15 21 46 44 112-5 165-20 23-48 36-77 36z m0-171c-35 0-64 29-64 64 0 35 29 64 64 64 35 0 64-29 64-64 0-35-29-64-64-64z m0 107c-23 0-43-20-43-43 0-23 20-43 43-43 23 0 43 20 43 43 0 23-20 43-43 43z"/>
<glyph glyph-name="plus" unicode="&#57346;" d="M256 53c-6 0-11 5-11 11l0 384c0 6 5 11 11 11 6 0 11-5 11-11l0-384c0-6-5-11-11-11z m192 192l-384 0c-6 0-11 5-11 11 0 6 5 11 11 11l384 0c6 0 11-5 11-11 0-6-5-11-11-11z"/>
<glyph glyph-name="post" unicode="&#57347;" d="M437 64l-362 0c-6 0-11 5-11 11l0 362c0 6 5 11 11 11l362 0c6 0 11-5 11-11l0-362c0-6-5-11-11-11z m-352 21l342 0 0 342-342 0z m171 54c-6 0-11 4-11 10l0 214c0 6 5 10 11 10 6 0 11-4 11-10l0-214c0-6-5-10-11-10z m107 106l-214 0c-6 0-10 5-10 11 0 6 4 11 10 11l214 0c6 0 10-5 10-11 0-6-4-11-10-11z"/>
<glyph glyph-name="price-tag" unicode="&#57348;" d="M224 64c-3 0-6 1-7 3l-150 150c-4 4-4 10 0 15l214 213c1 2 4 3 7 3l149 0c6 0 11-5 11-11l0-149c0-3-1-6-3-7l-214-214c-1-2-4-3-7-3z m-134 160l134-134 203 202 0 135-135 0z m145-85c-3 0-6 1-8 3l-85 85c-4 4-4 11 0 15 4 5 11 5 15 0l85-85c5-4 5-11 0-15-2-2-5-3-7-3z m32 32c-3 0-6 1-8 3l-85 85c-4 4-4 11 0 15 4 5 11 5 15 0l85-85c5-4 5-11 0-15-2-2-5-3-7-3z m106 170c-17 0-32 15-32 32 0 18 15 32 32 32 18 0 32-14 32-32 0-17-14-32-32-32z m0 43c-6 0-10-5-10-11 0-6 4-10 10-10 6 0 11 4 11 10 0 6-5 11-11 11z"/>
<glyph glyph-name="printer" unicode="&#57349;" d="M416 128l-43 0c-6 0-10 5-10 11 0 6 4 10 10 10l43 0c6 0 11 5 11 11l0 149c0 6-5 11-11 11l-320 0c-6 0-11-5-11-11l0-149c0-6 5-11 11-11l43 0c6 0 10-4 10-10 0-6-4-11-10-11l-43 0c-18 0-32 14-32 32l0 149c0 18 14 32 32 32l320 0c18 0 32-14 32-32l0-149c0-18-14-32-32-32z m-64 192l-192 0c-18 0-32 14-32 32l0 64c0 18 14 32 32 32l192 0c18 0 32-14 32-32l0-64c0-18-14-32-32-32z m-192 107c-6 0-11-5-11-11l0-64c0-6 5-11 11-11l192 0c6 0 11 5 11 11l0 64c0 6-5 11-11 11z m192-363l-192 0c-18 0-32 14-32 32l0 85c0 18 14 32 32 32l192 0c18 0 32-14 32-32l0-85c0-18-14-32-32-32z m-192 128c-6 0-11-5-11-11l0-85c0-6 5-11 11-11l192 0c6 0 11 5 11 11l0 85c0 6-5 11-11 11z m43 64l-64 0c-6 0-11 5-11 11 0 6 5 10 11 10l64 0c6 0 10-4 10-10 0-6-4-11-10-11z"/>
<glyph glyph-name="push-pin-1" unicode="&#57350;" d="M364 223c-6-6-14-10-23-10l-170 0c-18 0-32 15-32 32l0 13c0 8 3 17 9 23l30 30c2 2 3 4 3 7l0 98c0 18 15 32 32 32l86 0c17 0 32-14 32-32l0-98c0-3 1-5 3-7l30-30c6-6 9-15 9-23l0-13c0-8-3-17-9-22z m-201 42c-2-2-3-4-3-7l0-13c0-6 5-10 11-10l170 0c6 0 11 4 11 10l0 13c0 3-1 5-3 7l-30 30c-6 6-10 15-10 23l0 98c0 6-4 11-10 11l-86 0c-6 0-10-5-10-11l0-98c0-8-4-17-10-23z m207 165c-2-2-4-4-7-4l-214 0c-6 0-10 5-10 11 0 6 4 11 10 11l214 0c6 0 10-5 10-11 0-3-1-5-3-7z m-107-364c-1-1-4-2-7-2-6 0-11 3-11 7l0 156c0 4 5 7 11 7 6 0 11-3 11-7l0-156c0-1-2-3-4-5z"/>
<glyph glyph-name="push-pin-2" unicode="&#57351;" d="M301 148c-9 0-17 3-23 9l-121 121c-12 12-12 33 0 45l9 9c6 6 14 9 23 9l42 0c3 0 6 1 8 4l69 69c12 12 33 12 45 0l60-61c13-12 13-33 0-45l-69-69c-2-2-3-5-3-8l0-42c0-9-3-17-9-23l-9-9c-6-6-14-9-22-9z m-112 172c-3 0-6-1-8-3l-9-9c-4-4-4-11 0-15l121-121c4-4 11-4 15 0l9 9c2 2 3 5 3 7l0 43c0 9 4 17 10 23l69 69c4 4 4 11 0 15l-61 60c-4 5-11 5-15 0l-69-69c-6-6-14-9-23-9z m262-30c-2 0-5 1-7 3l-151 151c-4 4-4 11 0 15 4 4 11 4 15 0l151-151c4-4 4-11 0-15-2-2-5-3-8-3z m-376-226c-3 0-6 1-8 3-4 4-4 11 0 15l151 151c4 4 10 4 15 0 4-5 4-11 0-15l-151-151c-2-2-5-3-7-3z"/>
<glyph glyph-name="save" unicode="&#57352;" d="M416 64l-320 0c-18 0-32 14-32 32l0 320c0 18 14 32 32 32l265 0c8 0 16-3 22-9l56-56c6-6 9-14 9-22l0-265c0-18-14-32-32-32z m-320 363c-6 0-11-5-11-11l0-320c0-6 5-11 11-11l320 0c6 0 11 5 11 11l0 265c0 2-1 5-4 7l-55 55c-2 3-5 4-7 4z m256-363l-192 0c-6 0-11 5-11 11l0 170c0 6 5 11 11 11l192 0c6 0 11-5 11-11l0-170c0-6-5-11-11-11z m-181 21l170 0 0 150-170 0z m160 256l-150 0c-6 0-10 5-10 11l0 85c0 6 4 11 10 11l150 0c6 0 10-5 10-11l0-85c0-6-4-11-10-11z m-139 22l128 0 0 64-128 0z"/>
<glyph glyph-name="scan" unicode="&#57353;" d="M75 320c-6 0-11 5-11 11l0 85c0 18 14 32 32 32l85 0c6 0 11-5 11-11 0-6-5-10-11-10l-85 0c-6 0-11-5-11-11l0-85c0-6-4-11-10-11z m106-256l-85 0c-18 0-32 14-32 32l0 85c0 6 5 11 11 11 6 0 10-5 10-11l0-85c0-6 5-11 11-11l85 0c6 0 11-4 11-10 0-6-5-11-11-11z m256 256c-6 0-10 5-10 11l0 85c0 6-5 11-11 11l-85 0c-6 0-11 4-11 10 0 6 5 11 11 11l85 0c18 0 32-14 32-32l0-85c0-6-5-11-11-11z m-21-256l-85 0c-6 0-11 5-11 11 0 6 5 10 11 10l85 0c6 0 11 5 11 11l0 85c0 6 4 11 10 11 6 0 11-5 11-11l0-85c0-18-14-32-32-32z m43 192l-406 0c-6 0-10 5-10 11 0 6 4 10 10 10l406 0c6 0 10-4 10-10 0-6-4-11-10-11z"/>
<glyph glyph-name="scissors-1" unicode="&#57354;" d="M160 64c-29 0-53 24-53 53 0 30 24 54 53 54 29 0 53-24 53-54 0-29-24-53-53-53z m0 85c-18 0-32-14-32-32 0-17 14-32 32-32 18 0 32 15 32 32 0 18-14 32-32 32z m53-32c-1 0-3 1-4 1-6 3-8 9-5 15l149 298c3 6 9 8 15 5 5-3 7-9 4-14l-149-299c-2-4-6-6-10-6z m139-53c-29 0-53 24-53 53 0 30 24 54 53 54 29 0 53-24 53-54 0-29-24-53-53-53z m0 85c-18 0-32-14-32-32 0-17 14-32 32-32 18 0 32 15 32 32 0 18-14 32-32 32z m-53-32c-4 0-8 2-10 6l-149 299c-3 5-1 11 5 14 5 3 11 1 14-4l149-299c3-5 1-12-4-14-2-1-4-2-5-2z"/>
<glyph glyph-name="scissors-2" unicode="&#57355;" d="M117 171c-14 0-27 5-37 15-21 21-21 55 0 76 20 20 55 20 75 0 21-21 21-55 0-76-10-10-23-15-38-15z m0 85c-8 0-16-3-22-9-13-13-13-33 0-46 12-12 33-12 45 0 12 13 12 33 0 46-6 6-14 9-23 9z m54-46c-5 0-9 3-10 7-2 6 0 12 6 14l277 101c6 2 12-1 14-6 2-6-1-12-6-14l-278-101c-1 0-2-1-3-1z m53-146c-14 0-28 6-38 16-20 20-20 54 0 75 20 20 55 20 76 0 20-21 20-55 0-75-10-10-24-16-38-16z m0 85c-9 0-17-3-23-9-12-12-12-33 0-45 13-12 33-12 46 0 12 12 12 33 0 45-6 6-14 9-23 9z m-30-2z m27 13c-1 0-2 0-4 1-5 2-8 8-6 13l101 278c2 5 8 8 14 6 5-2 8-8 6-14l-101-277c-1-4-6-7-10-7z"/>
<glyph glyph-name="screen" unicode="&#57356;" d="M416 149l-320 0c-18 0-32 15-32 32l0 214c0 17 14 32 32 32l320 0c18 0 32-15 32-32l0-214c0-17-14-32-32-32z m-320 256c-6 0-11-4-11-10l0-214c0-6 5-10 11-10l320 0c6 0 11 4 11 10l0 214c0 6-5 10-11 10z m256-320l-192 0c-5 0-9 3-10 8-2 4 0 9 4 12l85 64c2 1 4 2 6 2l22 0c2 0 4-1 6-2l85-64c4-3 6-8 4-12-1-5-5-8-10-8z m-160 22l128 0-57 42-14 0z"/>
<glyph glyph-name="settings-1" unicode="&#57357;" d="M245 363l-170 0c-6 0-11 4-11 10 0 6 5 11 11 11l170 0c6 0 11-5 11-11 0-6-5-10-11-10z m214 0l-128 0c-6 0-11 4-11 10 0 6 5 11 11 11l128 0c6 0 10-5 10-11 0-6-4-10-10-10z m-171-43c-29 0-53 24-53 53 0 30 24 54 53 54 29 0 53-24 53-54 0-29-24-53-53-53z m0 85c-18 0-32-14-32-32 0-17 14-32 32-32 18 0 32 15 32 32 0 18-14 32-32 32z m-171-170l-42 0c-6 0-11 4-11 10 0 6 5 11 11 11l42 0c6 0 11-5 11-11 0-6-5-10-11-10z m342 0l-256 0c-6 0-11 4-11 10 0 6 5 11 11 11l256 0c6 0 10-5 10-11 0-6-4-10-10-10z m-299-43c-29 0-53 24-53 53 0 30 24 54 53 54 29 0 53-24 53-54 0-29-24-53-53-53z m0 85c-18 0-32-14-32-32 0-17 14-32 32-32 18 0 32 15 32 32 0 18-14 32-32 32z m149-170l-234 0c-6 0-11 4-11 10 0 6 5 11 11 11l234 0c6 0 11-5 11-11 0-6-5-10-11-10z m150 0l-64 0c-6 0-11 4-11 10 0 6 5 11 11 11l64 0c6 0 10-5 10-11 0-6-4-10-10-10z m-107-43c-29 0-53 24-53 53 0 30 24 54 53 54 29 0 53-24 53-54 0-29-24-53-53-53z m0 85c-18 0-32-14-32-32 0-17 14-32 32-32 18 0 32 15 32 32 0 18-14 32-32 32z"/>
<glyph glyph-name="settings-2" unicode="&#57358;" d="M139 43c-6 0-11 4-11 10l0 171c0 6 5 11 11 11 6 0 10-5 10-11l0-171c0-6-4-10-10-10z m0 256c-6 0-11 4-11 10l0 128c0 6 5 11 11 11 6 0 10-5 10-11l0-128c0-6-4-10-10-10z m0-86c-30 0-54 24-54 54 0 29 24 53 54 53 29 0 53-24 53-53 0-30-24-54-53-54z m0 86c-18 0-32-15-32-32 0-18 14-32 32-32 17 0 32 14 32 32 0 17-15 32-32 32z m128-256c-6 0-11 4-11 10l0 43c0 6 5 11 11 11 6 0 10-5 10-11l0-43c0-6-4-10-10-10z m0 128c-6 0-11 4-11 10l0 256c0 6 5 11 11 11 6 0 10-5 10-11l0-256c0-6-4-10-10-10z m0-86c-30 0-54 24-54 54 0 29 24 53 54 53 29 0 53-24 53-53 0-30-24-54-53-54z m0 86c-18 0-32-15-32-32 0-18 14-32 32-32 17 0 32 14 32 32 0 17-15 32-32 32z m128-128c-6 0-11 4-11 10l0 235c0 6 5 11 11 11 6 0 10-5 10-11l0-235c0-6-4-10-10-10z m0 320c-6 0-11 4-11 10l0 64c0 6 5 11 11 11 6 0 10-5 10-11l0-64c0-6-4-10-10-10z m0-86c-30 0-54 24-54 54 0 29 24 53 54 53 29 0 53-24 53-53 0-30-24-54-53-54z m0 86c-18 0-32-15-32-32 0-18 14-32 32-32 17 0 32 14 32 32 0 17-15 32-32 32z"/>
<glyph glyph-name="shopping-bag" unicode="&#57359;" d="M437 64l-362 0c-6 0-11 5-11 11l0 277c0 6 5 11 11 11l362 0c6 0 11-5 11-11l0-277c0-6-5-11-11-11z m-352 21l342 0 0 256-342 0z m224 139c-6 0-10 5-10 11l0 160c0 23-20 42-43 42-23 0-43-19-43-42l0-160c0-6-4-11-10-11-6 0-11 5-11 11l0 160c0 35 29 64 64 64 35 0 64-29 64-64l0-160c0-6-5-11-11-11z"/>
<glyph glyph-name="shopping-basket" unicode="&#57360;" d="M392 64l-272 0c-5 0-10 4-11 9l-45 256c0 3 0 6 3 8 1 3 4 4 8 4l362 0c4 0 7-1 8-4 3-2 3-5 3-8l-45-256c-1-5-6-9-11-9z m-263 21l254 0 42 235-338 0z m74 54c-6 0-11 4-11 10l0 107c0 6 5 11 11 11 6 0 10-5 10-11l0-107c0-6-4-10-10-10z m106 0c-6 0-10 4-10 10l0 107c0 6 4 11 10 11 6 0 11-5 11-11l0-107c0-6-5-10-11-10z m43 181c-6 0-11 5-11 11l0 79c-3 5-34 16-85 16-51 0-82-11-86-17l1-78c0-6-5-11-11-11-6 0-11 5-11 11l0 79c0 36 96 37 107 37 11 0 107-1 107-37l0-79c0-6-5-11-11-11z"/>
<glyph glyph-name="shopping-cart" unicode="&#57361;" d="M375 213l-195 1c-4 0-8 3-10 7l-50 146c-1 2-2 4-2 7l-19 53-35 0c-6 0-11 4-11 10 0 6 5 11 11 11l43 0c4 0 8-3 10-7l20-57 311 0c4 0 7-2 9-6 2-3 2-7 0-10l-73-149c-1-3-5-6-9-6z m-187 23l180-1 63 127-287 1z m-39-172c-29 0-53 24-53 53 0 30 24 54 53 54 30 0 54-24 54-54 0-29-24-53-54-53z m0 85c-17 0-32-14-32-32 0-17 15-32 32-32 18 0 32 15 32 32 0 18-14 32-32 32z m214-85c-30 0-54 24-54 53 0 30 24 54 54 54 29 0 53-24 53-54 0-29-24-53-53-53z m0 85c-18 0-32-14-32-32 0-17 14-32 32-32 17 0 32 15 32 32 0 18-15 32-32 32z m0 0l-203 0c-3 0-7 2-9 5-2 2-2 6-1 9l20 64c2 6 7 9 13 7 6-1 9-8 7-13l-15-50 188 0c6 0 10-5 10-11 0-6-4-11-10-11z"/>
<glyph glyph-name="shopping-cart-minus" unicode="&#57362;" d="M341 341l-128 0c-6 0-10 5-10 11 0 6 4 11 10 11l128 0c6 0 11-5 11-11 0-6-5-11-11-11z m43-128l-213 0c-5 0-9 3-11 8l-61 206-35 0c-6 0-11 4-11 10 0 6 5 11 11 11l43 0c4 0 9-3 10-8l62-205 197 0 40 141c2 6 8 9 14 8 5-2 9-8 7-14l-43-149c-1-4-5-8-10-8z m-235-149c-29 0-53 24-53 53 0 30 24 54 53 54 30 0 54-24 54-54 0-29-24-53-54-53z m0 85c-17 0-32-14-32-32 0-17 15-32 32-32 18 0 32 15 32 32 0 18-14 32-32 32z m214-85c-30 0-54 24-54 53 0 30 24 54 54 54 29 0 53-24 53-54 0-29-24-53-53-53z m0 85c-18 0-32-14-32-32 0-17 14-32 32-32 17 0 32 15 32 32 0 18-15 32-32 32z m0 0l-214 0c-3 0-6 2-8 5-2 3-3 6-2 9l21 64c2 6 8 9 14 7 5-2 8-8 7-13l-17-50 199 0c6 0 10-5 10-11 0-6-4-11-10-11z"/>
<glyph glyph-name="shopping-cart-plus" unicode="&#57363;" d="M267 288c-6 0-11 5-11 11l0 106c0 6 5 11 11 11 6 0 10-5 10-11l0-106c0-6-4-11-10-11z m53 53l-107 0c-6 0-10 5-10 11 0 6 4 11 10 11l107 0c6 0 11-5 11-11 0-6-5-11-11-11z m64-128l-213 0c-5 0-9 3-11 8l-61 206-35 0c-6 0-11 4-11 10 0 6 5 11 11 11l43 0c4 0 9-3 10-8l62-205 197 0 40 141c2 6 8 9 14 8 5-2 9-8 7-14l-43-149c-1-4-5-8-10-8z m-235-149c-29 0-53 24-53 53 0 30 24 54 53 54 30 0 54-24 54-54 0-29-24-53-54-53z m0 85c-17 0-32-14-32-32 0-17 15-32 32-32 18 0 32 15 32 32 0 18-14 32-32 32z m214-85c-30 0-54 24-54 53 0 30 24 54 54 54 29 0 53-24 53-54 0-29-24-53-53-53z m0 85c-18 0-32-14-32-32 0-17 14-32 32-32 17 0 32 15 32 32 0 18-15 32-32 32z m0 0l-214 0c-3 0-6 2-8 5-2 3-3 6-2 9l21 64c2 6 8 9 14 7 5-2 8-8 7-13l-17-50 199 0c6 0 10-5 10-11 0-6-4-11-10-11z"/>
<glyph glyph-name="sign-out" unicode="&#57364;" d="M268 75c-93 0-169 76-169 169 0 48 21 95 57 127 5 4 11 3 15-1 4-5 4-11-1-15-31-29-50-69-50-111 0-82 67-148 148-148 82 0 148 66 148 148 0 42-18 82-50 111-5 3-5 10-1 15 4 4 11 5 15 1 37-33 57-79 57-127 0-93-76-169-169-169z m-1 160c-6 0-11 4-11 10l0 192c0 6 5 11 11 11 6 0 10-5 10-11l0-192c0-6-4-10-10-10z"/>
<glyph glyph-name="signal" unicode="&#57365;" d="M256 107c-23 0-43 19-43 42 0 24 20 43 43 43 23 0 43-19 43-43 0-23-20-42-43-42z m0 64c-12 0-21-10-21-22 0-11 9-21 21-21 12 0 21 10 21 21 0 12-9 22-21 22z m-83 16c-3 0-6 1-7 2-5 4-5 11-1 16 23 25 56 40 91 40 35 0 68-15 92-41 3-4 3-11-1-15-5-4-11-3-15 1-20 22-47 34-76 34-29 0-56-13-76-34-2-2-5-3-7-3z m216 56c-2 0-5 1-7 3-34 34-78 53-126 53-48 0-92-19-126-53-4-4-11-4-15 0-4 4-4 11 0 15 38 38 87 59 141 59 54 0 103-21 141-59 4-5 4-11 0-15-2-2-5-3-8-3z m54 52c-3 0-6 1-8 3-48 49-111 75-179 75-68 0-131-26-179-75-4-4-11-4-15 0-4 4-4 11 0 15 51 53 120 82 194 82 74 0 143-29 194-82 4-4 4-11 0-15-2-2-5-3-7-3z"/>
<glyph glyph-name="smartphone" unicode="&#57366;" d="M350 64l-188 0c-19 0-34 14-34 31l0 322c0 17 15 31 34 31l188 0c19 0 34-14 34-31l0-322c0-17-15-31-34-31z m-188 363c-7 0-13-5-13-10l0-322c0-5 6-10 13-10l188 0c7 0 13 5 13 10l0 322c0 5-6 10-13 10z m211-43l-234 0c-6 0-11 5-11 11 0 6 5 10 11 10l234 0c6 0 11-4 11-10 0-6-5-11-11-11z m0-235l-234 0c-6 0-11 5-11 11 0 6 5 11 11 11l234 0c6 0 11-5 11-11 0-6-5-11-11-11z m-85-42l-64 0c-6 0-11 4-11 10 0 6 5 11 11 11l64 0c6 0 11-5 11-11 0-6-5-10-11-10z"/>
<glyph glyph-name="sound-volume-down" unicode="&#57367;" d="M245 64l-30 0c-11 0-22 6-28 16l-51 86c-2 3-6 5-9 5l-31 0c-18 0-32 14-32 32l0 106c0 18 14 32 32 32l31 0c3 0 7 2 9 5l51 86c6 10 17 16 28 16l30 0c18 0 32-14 32-32l0-320c0-18-14-32-32-32z m-149 256c-6 0-11-5-11-11l0-106c0-6 5-11 11-11l31 0c11 0 21-6 27-16l52-86c2-3 5-5 9-5l30 0c6 0 11 5 11 11l0 320c0 6-5 11-11 11l-30 0c-4 0-7-2-9-5l-52-86c-6-10-16-16-27-16z m224-160c-3 0-6 1-9 4-3 5-2 12 3 15 24 19 38 46 38 77 0 31-14 58-38 77-5 3-6 10-3 15 4 4 11 5 15 2 30-23 47-57 47-94 0-37-17-71-47-94-2-1-4-2-6-2z"/>
<glyph glyph-name="sound-volume-mute" unicode="&#57368;" d="M320 181c-3 0-6 1-7 4-5 4-5 10 0 15l128 128c4 4 10 4 15 0 4-5 4-11 0-15l-128-128c-2-3-5-4-8-4z m128 0c-3 0-6 1-7 4l-128 128c-5 4-5 10 0 15 4 4 10 4 15 0l128-128c4-5 4-11 0-15-2-3-5-4-8-4z m-203-117l-30 0c-11 0-22 6-28 16l-51 86c-2 3-6 5-9 5l-31 0c-18 0-32 14-32 32l0 106c0 18 14 32 32 32l31 0c3 0 7 2 9 5l51 86c6 10 17 16 28 16l30 0c18 0 32-14 32-32l0-320c0-18-14-32-32-32z m-149 256c-6 0-11-5-11-11l0-106c0-6 5-11 11-11l31 0c11 0 21-6 27-16l52-86c2-3 5-5 9-5l30 0c6 0 11 5 11 11l0 320c0 6-5 11-11 11l-30 0c-4 0-7-2-9-5l-52-86c-6-10-16-16-27-16z"/>
<glyph glyph-name="star" unicode="&#57369;" d="M128 59c-3 0-5 1-7 2-3 3-5 7-3 12l40 124-101 84c-3 2-5 7-3 11 1 4 5 7 9 8l136 9 47 137c1 4 5 7 10 7 4 0 8-3 10-7l47-137 136-10c4 0 8-3 9-7 1-4 0-9-4-12l-103-82 43-125c1-5 0-9-3-12-4-3-8-3-12-1l-123 63-123-63c-2-1-3-1-5-1z m-37 221l86-71c4-2 5-7 4-11l-35-107 105 54c3 1 7 1 10 0l104-54-36 107c-2 4 0 9 3 12l88 70-115 9c-5 0-8 3-10 7l-39 114-39-114c-1-4-5-7-9-7z"/>
<glyph glyph-name="suitcase-1" unicode="&#57370;" d="M416 64l-320 0c-18 0-32 14-32 32l0 235c0 17 14 32 32 32l320 0c18 0 32-15 32-32l0-235c0-18-14-32-32-32z m-320 277c-6 0-11-4-11-10l0-235c0-6 5-11 11-11l320 0c6 0 11 5 11 11l0 235c0 6-5 10-11 10z m256 0c-6 0-11 5-11 11l0 64c0 6-4 11-10 11l-150 0c-6 0-10-5-10-11l0-64c0-6-5-11-11-11-6 0-11 5-11 11l0 64c0 18 15 32 32 32l150 0c17 0 32-14 32-32l0-64c0-6-5-11-11-11z m-213-64c-6 0-11 5-11 11l0 64c0 6 5 11 11 11 6 0 10-5 10-11l0-64c0-6-4-11-10-11z m234 0c-6 0-10 5-10 11l0 64c0 6 4 11 10 11 6 0 11-5 11-11l0-64c0-6-5-11-11-11z m-21-106l-21 0c-6 0-11 4-11 10l0 22c0 6 5 10 11 10l21 0c6 0 11-4 11-10l0-22c0-6-5-10-11-10z m-11 21z m32-64l-64 0c-6 0-10 5-10 11 0 6 4 10 10 10l64 0c6 0 11-4 11-10 0-6-5-11-11-11z"/>
<glyph glyph-name="suitcase-2" unicode="&#57371;" d="M416 64l-320 0c-18 0-32 14-32 32l0 235c0 17 14 32 32 32l320 0c18 0 32-15 32-32l0-235c0-18-14-32-32-32z m-320 277c-6 0-11-4-11-10l0-235c0-6 5-11 11-11l320 0c6 0 11 5 11 11l0 235c0 6-5 10-11 10z m256-64c-6 0-11 5-11 11l0 128c0 6-4 11-10 11l-150 0c-6 0-10-5-10-11l0-128c0-6-5-11-11-11-6 0-11 5-11 11l0 128c0 18 15 32 32 32l150 0c17 0 32-14 32-32l0-128c0-6-5-11-11-11z m85 0l-362 0c-6 0-11 5-11 11 0 6 5 11 11 11l362 0c6 0 11-5 11-11 0-6-5-11-11-11z"/>
<glyph glyph-name="trash-bin" unicode="&#57372;" d="M416 384l-320 0c-6 0-11 5-11 11 0 6 5 10 11 10l320 0c6 0 11-4 11-10 0-6-5-11-11-11z m-213-256c-6 0-11 5-11 11l0 192c0 6 5 10 11 10 6 0 10-4 10-10l0-192c0-6-4-11-10-11z m106 0c-6 0-10 5-10 11l0 192c0 6 4 10 10 10 6 0 11-4 11-10l0-192c0-6-5-11-11-11z m64-64l-234 0c-18 0-32 15-32 33l0 287c0 6 4 11 10 11 6 0 11-5 11-11l0-287c0-7 5-12 11-12l234 0c6 0 11 5 11 12l0 287c0 6 5 11 11 11 6 0 10-5 10-11l0-287c0-18-14-33-32-33z m-64 320c-4 0-7 2-9 6l-19 37-50 0-19-37c-3-5-9-7-14-5-5 3-7 9-5 14l21 43c2 4 6 6 10 6l64 0c4 0 8-2 10-6l21-43c2-5 0-11-5-14-1-1-3-1-5-1z"/>
<glyph glyph-name="unlock" unicode="&#57373;" d="M395 64l-278 0c-17 0-32 14-32 32l0 192c0 18 15 32 32 32l278 0c17 0 32-14 32-32l0-192c0-18-15-32-32-32z m-278 235c-6 0-10-5-10-11l0-192c0-6 4-11 10-11l278 0c6 0 10 5 10 11l0 192c0 6-4 11-10 11z m256 5c-6 0-10 5-10 11 0 59-49 106-108 106-34 0-66-16-86-43-4-5-10-6-15-3-5 4-6 11-3 15 25 33 63 53 104 53 71 0 129-58 129-128 0-6-5-11-11-11z m-117-155c-23 0-43 20-43 43 0 23 20 43 43 43 23 0 43-20 43-43 0-23-20-43-43-43z m0 64c-12 0-21-9-21-21 0-12 9-21 21-21 12 0 21 9 21 21 0 12-9 21-21 21z"/>
<glyph glyph-name="upload" unicode="&#57374;" d="M307 171l-102 0c-19 0-34 14-34 32l0 50c0 6-6 11-13 11-14 0-27 8-32 20-5 11-3 24 6 34l99 108c13 15 37 15 50 0l99-108c9-10 11-23 6-34-5-12-18-20-32-20-7 0-12-5-12-11l0-50c-1-18-16-32-35-32z m-51 245c-3 0-7-1-9-4l-100-109c-4-4-3-8-2-11 2-3 6-7 13-7 19 0 34-14 34-32l0-50c0-6 6-11 13-11l102 0c7 0 13 5 13 11l0 50c0 18 15 32 34 32 7 0 11 4 13 7 0 3 1 7-2 11l-100 109c-2 3-6 4-9 4z m-17 3z m177-355l-320 0c-18 0-32 14-32 32 0 18 14 32 32 32l320 0c18 0 32-14 32-32 0-18-14-32-32-32z m-320 43c-6 0-11-5-11-11 0-6 5-11 11-11l320 0c6 0 11 5 11 11 0 6-5 11-11 11z"/>
<glyph glyph-name="user-profile-1" unicode="&#57375;" d="M256 277c-47 0-85 39-85 86 0 47 38 85 85 85 47 0 85-38 85-85 0-47-38-86-85-86z m0 150c-35 0-64-29-64-64 0-36 29-64 64-64 35 0 64 28 64 64 0 35-29 64-64 64z m-192-352c-2 0-4 0-6 2-5 3-6 10-3 14 48 71 121 112 201 112 80 0 153-41 201-112 3-5 2-11-3-14-5-4-12-2-15 2-44 65-110 102-183 102-73 0-139-37-183-102-2-3-6-4-9-4z"/>
<glyph glyph-name="user-profile-2" unicode="&#57376;" d="M256 277c-47 0-85 39-85 86 0 47 38 85 85 85 47 0 85-38 85-85 0-47-38-86-85-86z m0 150c-35 0-64-29-64-64 0-36 29-64 64-64 35 0 64 28 64 64 0 35-29 64-64 64z m171-374c-5 0-9 3-10 7-39 96-99 153-161 153-62 0-122-57-161-153-2-6-8-8-14-6-5 2-8 8-6 14 43 106 109 167 181 167 72 0 138-61 180-167 3-5 0-12-5-14-2 0-3-1-4-1z"/>
<glyph glyph-name="user-profile-3" unicode="&#57377;" d="M437 64c-6 0-10 5-10 11l0 42c0 42-50 75-111 75l-120 0c-61 0-111-33-111-75l0-42c0-6-4-11-10-11-6 0-11 5-11 11l0 42c0 53 59 96 132 96l121 0c72 0 131-43 131-96l0-42c0-6-5-11-11-11z m-181 213c-47 0-85 39-85 86 0 47 38 85 85 85 47 0 85-38 85-85 0-47-38-86-85-86z m0 150c-35 0-64-29-64-64 0-36 29-64 64-64 35 0 64 28 64 64 0 35-29 64-64 64z"/>
<glyph glyph-name="user-profile-4" unicode="&#57378;" d="M256 277c-47 0-85 39-85 86 0 47 38 85 85 85 47 0 85-38 85-85 0-47-38-86-85-86z m0 150c-35 0-64-29-64-64 0-36 29-64 64-64 35 0 64 28 64 64 0 35-29 64-64 64z m96-342c-6 0-11 5-11 11l0 74c0 24-19 43-43 43l-84 0c-24 0-43-19-43-43l0-74c0-6-5-11-11-11-6 0-11 5-11 11l0 74c0 36 29 65 65 65l84 0c36 0 64-29 64-65l0-74c1-6-4-11-10-11z m-192-21c-6 0-11 5-11 11l0 42c0 6 5 11 11 11 6 0 11-5 11-11l0-42c0-6-5-11-11-11z m192 0c-6 0-11 5-11 11l0 42c0 6 5 11 11 11 6 0 11-5 11-11l0-42c0-6-5-11-11-11z"/>
<glyph glyph-name="user-profile-5" unicode="&#57379;" d="M256 256c-47 0-85 38-85 85 0 47 38 86 85 86 47 0 85-39 85-86 0-47-38-85-85-85z m0 149c-35 0-64-28-64-64 0-35 29-64 64-64 35 0 64 29 64 64 0 36-29 64-64 64z m181-351c-6 0-10 5-10 11l0 62c0 12-10 22-23 22l-296 0c-13 0-23-10-23-22l0-62c0-6-4-11-10-11-6 0-11 5-11 11l0 62c0 24 20 44 44 44l296 0c24 0 44-20 44-44l0-62c0-6-5-11-11-11z"/>
<glyph glyph-name="video-player" unicode="&#57380;" d="M316 128l-226 0c-14 0-26 11-26 25l0 206c0 14 12 25 26 25l226 0c14 0 25-11 25-25l0-207c0-13-11-24-25-24z m-226 235c-3 0-5-2-5-4l0-207c0-1 2-3 5-3l226 0c2 0 4 2 4 4l0 206c0 2-2 4-4 4z m347-214c-2 0-4 1-5 2l-107 64c-3 2-5 5-5 9l0 64c0 4 2 7 5 9l107 64c3 2 7 2 10 0 4-2 6-5 6-9l0-192c0-4-2-7-5-9-2-1-4-2-6-2z m-96 81l86-51 0 154-86-51z"/>
<glyph glyph-name="zoom-in" unicode="&#57381;" d="M224 128c-88 0-160 72-160 160 0 88 72 160 160 160 88 0 160-72 160-160 0-88-72-160-160-160z m0 299c-76 0-139-63-139-139 0-76 63-139 139-139 76 0 139 63 139 139 0 76-63 139-139 139z m224-374c-3 0-6 1-7 4l-107 106c-4 4-4 11 0 15 4 5 11 5 15 0l107-106c4-5 4-11 0-15-2-3-5-4-8-4z m-224 160c-6 0-11 5-11 11l0 128c0 6 5 11 11 11 6 0 11-5 11-11l0-128c0-6-5-11-11-11z m64 64l-128 0c-6 0-11 5-11 11 0 6 5 11 11 11l128 0c6 0 11-5 11-11 0-6-5-11-11-11z"/>
<glyph glyph-name="battery-low-22" unicode="&#57382;" d="M373 128l-298 0c-6 0-11 5-11 11l0 234c0 6 5 11 11 11l298 0c6 0 11-5 11-11l0-234c0-6-5-11-11-11z m-288 21l278 0 0 214-278 0z m352 43l-64 0c-6 0-10 5-10 11 0 6 4 10 10 10l54 0 0 86-54 0c-6 0-10 4-10 10 0 6 4 11 10 11l64 0c6 0 11-5 11-11l0-106c0-6-5-11-11-11z m-277-21l-43 0c-6 0-10 4-10 10l0 150c0 6 4 10 10 10l43 0c6 0 11-4 11-10l0-150c0-6-5-10-11-10z m-32 21l21 0 0 128-21 0z"/>
<glyph glyph-name="cancel-close-square" unicode="&#57383;" d="M437 64l-362 0c-6 0-11 5-11 11l0 362c0 6 5 11 11 11l362 0c6 0 11-5 11-11l0-362c0-6-5-11-11-11z m-352 21l342 0 0 342-342 0z m247 85c-3 0-6 1-8 3l-151 151c-4 4-4 11 0 15 4 4 11 4 15 0l151-151c4-4 4-11 0-15-2-2-5-3-7-3z m-152 0c-2 0-5 1-7 3-4 4-4 11 0 15l151 151c4 4 11 4 15 0 4-4 4-11 0-15l-151-151c-2-2-5-3-8-3z"/>
<glyph glyph-name="code" unicode="&#57384;" d="M416 64l-320 0c-18 0-32 14-32 32l0 320c0 18 14 32 32 32l320 0c18 0 32-14 32-32l0-320c0-18-14-32-32-32z m-320 363c-6 0-11-5-11-11l0-320c0-6 5-11 11-11l320 0c6 0 11 5 11 11l0 320c0 6-5 11-11 11z m117-246c-2 0-4 1-6 2l-85 64c-3 2-5 6-5 9 0 3 2 7 5 9l85 64c5 3 11 2 15-3 3-4 2-11-2-15l-74-55 74-55c4-4 5-11 2-15-2-3-5-5-9-5z m86 0c-4 0-7 2-9 5-3 4-2 11 2 15l74 55-74 55c-4 4-5 11-2 15 4 5 10 6 15 3l85-64c3-2 5-6 5-9 0-3-2-7-5-9l-85-64c-2-1-4-2-6-2z"/>
<glyph glyph-name="document-2" unicode="&#57385;" d="M437 235l-85 0c-6 0-11 4-11 10l0 150c0 29 24 53 54 53 29 0 53-24 53-53l0-150c0-6-5-10-11-10z m-74 21l64 0 0 139c0 17-15 32-32 32-18 0-32-15-32-32z m-11-192l-277 0c-6 0-11 5-11 11l0 320c0 29 24 53 53 53l278 0c6 0 10-5 10-11 0-6-4-10-10-10l-278 0c-17 0-32-15-32-32l0-310 256 0 0 182c0 6 5 10 11 10 6 0 11-4 11-10l0-192c0-6-5-11-11-11z m-64 85l-149 0c-6 0-11 5-11 11 0 6 5 11 11 11l149 0c6 0 11-5 11-11 0-6-5-11-11-11z m-85 171l-64 0c-6 0-11 5-11 11 0 6 5 10 11 10l64 0c6 0 10-4 10-10 0-6-4-11-10-11z m85-85l-149 0c-6 0-11 4-11 10 0 6 5 11 11 11l149 0c6 0 11-5 11-11 0-6-5-10-11-10z"/>
<glyph glyph-name="zoom-out" unicode="&#57386;" d="M224 128c-88 0-160 72-160 160 0 88 72 160 160 160 88 0 160-72 160-160 0-88-72-160-160-160z m0 299c-76 0-139-63-139-139 0-76 63-139 139-139 76 0 139 63 139 139 0 76-63 139-139 139z m64-150l-128 0c-6 0-11 5-11 11 0 6 5 11 11 11l128 0c6 0 11-5 11-11 0-6-5-11-11-11z m160-224c-3 0-6 1-7 4l-107 106c-4 4-4 11 0 15 4 5 11 5 15 0l107-106c4-5 4-11 0-15-2-3-5-4-8-4z"/>
<glyph glyph-name="wallet" unicode="&#57387;" d="M416 64l-299 0c-29 0-53 25-53 56l0 272c0 31 24 56 53 56l299 0c6 0 11-5 11-11l0-165c0-6-5-10-11-10-6 0-11 4-11 10l0 155-288 0c-17 0-32-16-32-35l0-272c0-19 15-35 32-35l288 0 0 96c0 6 5 11 11 11 6 0 11-5 11-11l0-106c0-6-5-11-11-11z m0 267l-298 0c-30 0-54 24-54 53 0 6 5 11 11 11 6 0 11-5 11-11 0-18 14-32 32-32l298 0c6 0 11-5 11-11 0-6-5-10-11-10z m21-160l-85 0c-18 0-32 14-32 32l0 42c0 18 14 32 32 32l85 0c6 0 11-4 11-10l0-86c0-6-5-10-11-10z m-85 85c-6 0-11-5-11-11l0-42c0-6 5-11 11-11l75 0 0 64z"/>
<glyph glyph-name="sound-volume-up" unicode="&#57388;" d="M320 160c-3 0-6 1-9 4-3 5-2 12 3 15 24 19 38 46 38 77 0 31-14 58-38 77-5 3-6 10-3 15 4 4 11 5 15 2 30-23 47-57 47-94 0-37-17-71-47-94-2-1-4-2-6-2z m64-58c-3 0-6 1-8 4-4 4-4 11 1 15 38 34 60 84 60 135 0 51-22 101-60 135-5 4-5 11-1 15 4 5 11 5 15 1 43-38 68-93 68-151 0-58-25-113-68-151-2-2-4-3-7-3z m-139-38l-30 0c-11 0-22 6-28 16l-51 86c-2 3-6 5-9 5l-31 0c-18 0-32 14-32 32l0 106c0 18 14 32 32 32l31 0c3 0 7 2 9 5l51 86c6 10 17 16 28 16l30 0c18 0 32-14 32-32l0-320c0-18-14-32-32-32z m-149 256c-6 0-11-5-11-11l0-106c0-6 5-11 11-11l31 0c11 0 21-6 27-16l52-86c2-3 5-5 9-5l30 0c6 0 11 5 11 11l0 320c0 6-5 11-11 11l-30 0c-4 0-7-2-9-5l-52-86c-6-10-16-16-27-16z"/>
<glyph glyph-name="search" unicode="&#57389;" d="M235 107c-94 0-171 76-171 170 0 94 77 171 171 171 94 0 170-77 170-171 0-94-76-170-170-170z m0 320c-83 0-150-67-150-150 0-82 67-149 150-149 82 0 149 67 149 149 0 83-67 150-149 150z m213-374c-3 0-6 1-7 4l-86 85c-4 4-4 11 0 15 4 4 11 4 15 0l86-85c4-5 4-11 0-15-2-3-5-4-8-4z"/>
<glyph glyph-name="pie-chart" unicode="&#57390;" d="M245 64c-12 0-24 1-36 3-71 14-128 71-141 142-11 54 3 110 37 151 35 43 86 67 140 67 6 0 11-5 11-11l0-160 160 0c6 0 11-5 11-11 0-54-24-105-66-140-33-27-74-41-116-41z m-10 341c-44-3-85-24-113-58-31-37-43-86-33-134 12-62 62-112 124-124 48-10 97 2 134 33 34 28 55 69 58 113l-160 0c-6 0-10 4-10 10z m202-128l-149 0c-6 0-11 5-11 11l0 149c0 6 5 11 11 11 88 0 160-72 160-160 0-6-5-11-11-11z m-138 22l127 0c-5 68-59 122-127 127z"/>
<glyph glyph-name="more-vertical" unicode="&#57391;" d="M107 213c-24 0-43 20-43 43 0 23 19 43 43 43 23 0 42-20 42-43 0-23-19-43-42-43z m0 64c-12 0-22-9-22-21 0-12 10-21 22-21 11 0 21 9 21 21 0 12-10 21-21 21z m149-64c-23 0-43 20-43 43 0 23 20 43 43 43 23 0 43-20 43-43 0-23-20-43-43-43z m0 64c-12 0-21-9-21-21 0-12 9-21 21-21 12 0 21 9 21 21 0 12-9 21-21 21z m149-64c-23 0-42 20-42 43 0 23 19 43 42 43 24 0 43-20 43-43 0-23-19-43-43-43z m0 64c-11 0-21-9-21-21 0-12 10-21 21-21 12 0 22 9 22 21 0 12-10 21-22 21z"/>
<glyph glyph-name="mail-open" unicode="&#57392;" d="M416 43l-320 0c-18 0-32 14-32 32l0 234c0 6 5 11 11 11 6 0 10-5 10-11l0-234c0-6 5-11 11-11l320 0c6 0 11 5 11 11l0 234c0 6 4 11 10 11 6 0 11-5 11-11l0-234c0-18-14-32-32-32z m-341 192c-6 0-11 4-11 10l0 85c0 11 6 21 15 27l65 39c5 3 11 1 15-3 2-6 1-12-4-15l-65-39c-3-2-5-6-5-9l0-85c0-6-4-10-10-10z m181-64c-3 0-5 1-7 2l-176 150c-4 3-5 10-1 14 4 5 10 6 15 2l169-144 169 144c5 4 11 3 15-1 4-5 3-12-1-15l-176-150c-2-1-4-2-7-2z m96 85c-6 0-11 5-11 11l0 149c0 6-4 11-10 11l-150 0c-6 0-10-5-10-11l0-149c0-6-5-11-11-11-6 0-11 5-11 11l0 149c0 18 15 32 32 32l150 0c17 0 32-14 32-32l0-149c0-6-5-11-11-11z m85-21c-6 0-10 4-10 10l0 85c0 3-2 7-5 9l-65 39c-5 3-6 10-4 15 3 5 10 6 15 3l65-38c9-7 15-17 15-28l0-85c0-6-5-10-11-10z"/>
<glyph glyph-name="home-1" unicode="&#57393;" d="M331 64c-6 0-11 5-11 11l0 160-128 0 0-160c0-6-5-11-11-11-6 0-10 5-10 11l0 170c0 6 4 11 10 11l150 0c6 0 10-5 10-11l0-170c0-6-4-11-10-11z m106 0l-362 0c-6 0-11 5-11 11l0 241c0 4 2 7 4 9l182 132c4 2 9 2 13 0l181-132c2-2 4-5 4-9l0-241c0-6-5-11-11-11z m-352 21l342 0 0 226-171 124-171-124z"/>
<glyph glyph-name="24-hours" unicode="&#57394;" d="M395 256l-86 0c-17 0-32 14-32 32l0 64c0 6 5 11 11 11 6 0 11-5 11-11l0-64c0-6 4-11 10-11l86 0c6 0 10-4 10-10 0-6-4-11-10-11z m0-107c-6 0-11 5-11 11l0 192c0 6 5 11 11 11 6 0 10-5 10-11l0-192c0-6-4-11-10-11z m21-85l-320 0c-18 0-32 14-32 32l0 320c0 18 14 32 32 32l320 0c18 0 32-14 32-32l0-320c0-18-14-32-32-32z m-320 363c-6 0-11-5-11-11l0-320c0-6 5-11 11-11l320 0c6 0 11 5 11 11l0 320c0 6-5 11-11 11z m128-278l-85 0c-18 0-32 15-32 32l0 64c0 18 14 32 32 32l64 0c6 0 10 5 10 11l0 43c0 6-4 10-10 10l-86 0c-6 0-10 5-10 11 0 6 4 11 10 11l86 0c17 0 32-15 32-32l0-43c0-18-15-32-32-32l-64 0c-6 0-11-5-11-11l0-64c0-6 5-10 11-10l85 0c6 0 11-5 11-11 0-6-5-11-11-11z"/>
</font>
</defs>
</svg>
